img image001 image001 image001 image001 image001 image001 image001 image001 image001 image001 image001 image001 image001 image001 image001

Planets Sun Sun Sun
Статистика раздачи
Автор: PriZraK | Размер: 25.9 ГБ | Добавлен: 30 авг 2016
Раздают: 31    Качают: 7
Скачать торрент
Скачать торрент
Описание торрента

СообщениеДобавлено: 30 авг 2016 


Информация о фильме
Название: Вий
Год выхода: 2013
Жанр: Фэнтези, Триллер, Приключения
Режиссер: Олег Степченко
В ролях: Джейсон Флеминг, Алексей Чадов, Агния Дитковските, Андрей Смоляков, Игорь Жижикин, Олег Тактаров, Валерий Золотухин, Нина Русланова, Юрий Цурило, Александр Яковлев
О фильме: Начало XVIII века. Картограф Джонатан Грин совершает путешествие в Восточную Европу. Миновав Трансильванию, он понимает, что заблудился. Изрядно поплутав в тумане, он оказывается в небольшом казацком поселении. Народ живет здесь в затворничестве, оградив себя от любых контактов с остальным миром. Что скрывают жители хутора? Чего боятся и почему прячутся? Ученый решает разгадать тайну, связанную с именем необыкновенного мифического создания — Вия…

Страна: Россия, Украина, Германия, Великобритания, Чехия
Продолжительность: 02:10:12
Файл
Кодек: H.264
Качество: 3D BDRip
Видео: 1920х2160p (16:9) / 23.976 fps / 27000 Kbps (вертикальная стереопара)
Аудио: Rus / DTS / 48 KHz / 5.1 ch / 1509 Kbps
Внимание: Данное видео не воспроизводится с usb телевизора!
Только через HDMI-шнур на телевизор (с компьютера или медиаплеера).
Семпл * зеркало


Общее
Уникальный идентификатор : 222888251992663163050826646977880686148 (0xA7AEB743AE54B4DBBC38D1CB17A27E44)
Полное имя : VIY.2013.3D.OU.mkv
Формат : Matroska
Версия формата : Version 4 / Version 2
Размер файла : 25,9 Гбайт
Продолжительность : 2 ч. 10 м.
Общий поток : 28,5 Мбит/сек
Дата кодирования : UTC 2016-08-29 07:47:12
Программа кодирования : mkvmerge v9.4.0 ('Knurl') 64bit
Библиотека кодирования : libebml v1.3.4 + libmatroska v1.4.5
Обложка : Yes
Attachments : cover.jpg
Видео
Идентификатор : 1
Формат : AVC
Формат/Информация : Advanced Video Codec
Профиль формата : High@L5.1
MultiView_Count : 2
MultiView_Layout : Top-Bottom (left eye first)
Параметр CABAC формата : Да
Параметр ReFrames формата : 5 кадров
Идентификатор кодека : V_MPEG4/ISO/AVC
Продолжительность : 2 ч. 10 м.
Битрейт : 27,0 Мбит/сек
Ширина : 1920 пикселей
Высота : 2160 пикселей
Соотношение сторон : 16:9
Соотношение сторон в оригинале : 0,889
Режим частоты кадров : Постоянный
Частота кадров : 23,976 (24000/1001) кадра/сек
Цветовое пространство : YUV
Субдискретизация насыщенности : 4:2:0
Битовая глубина : 8 бит
Тип развёртки : Прогрессивная
Бит/(Пиксели*Кадры) : 0.272
Размер потока : 24,5 Гбайт (95%)
Библиотека кодирования : x264 core 148 r2638 7599210
Настройки программы : cabac=1 / ref=5 / deblock=1:-3:-3 / analyse=0x3:0x133 / me=esa / subme=11 / psy=1 / psy_rd=1.00:0.00 / mixed_ref=1 / me_range=32 / chroma_me=1 / trellis=2 / 8x8dct=1 / cqm=0 / deadzone=21,11 / fast_pskip=0 / chroma_qp_offset=-2 / threads=18 / lookahead_threads=1 / sliced_threads=0 / nr=0 / decimate=1 / interlaced=0 / bluray_compat=0 / constrained_intra=0 / bframes=3 / b_pyramid=2 / b_adapt=2 / b_bias=0 / direct=3 / weightb=1 / open_gop=0 / weightp=2 / keyint=230 / keyint_min=23 / scenecut=40 / intra_refresh=0 / rc_lookahead=230 / rc=2pass / mbtree=1 / bitrate=27000 / ratetol=10.0 / qcomp=0.70 / qpmin=0 / qpmax=51 / qpstep=4 / cplxblur=20.0 / qblur=0.5 / vbv_maxrate=300000 / vbv_bufsize=300000 / nal_hrd=none / filler=0 / ip_ratio=1.40 / aq=1:0.80
Default : Да
Forced : Нет
Аудио
Идентификатор : 2
Формат : DTS
Формат/Информация : Digital Theater Systems
Режим : 16
Параметр Endianness формата : Big
Идентификатор кодека : A_DTS
Продолжительность : 2 ч. 10 м.
Вид битрейта : Постоянный
Битрейт : 1509 Кбит/сек
Каналы : 6 каналов
Расположение каналов : Front: L C R, Side: L R, LFE
Частота : 48,0 КГц
Частота кадров : 93,750 кадра/сек (512 spf)
Битовая глубина : 16 бит
Метод сжатия : С потерями
Размер потока : 1,37 Гбайт (5%)
Язык : Russian
Default : Да
Forced : Нет

Релиз от:



   Похожие торренты   Торрент   Размер 
В этой теме нет новых непрочитанных сообщений. Ку! Кин-дза-дза (2013) BDRip 1080p | 3D-Video

7 | 2

3.31 ГБ

В этой теме нет новых непрочитанных сообщений. Ку! Кин-дза-дза (2013) BDRip 1080p от Youtracker | 3D-Video

3 | 4

5.82 ГБ

В этой теме нет новых непрочитанных сообщений. Пауки 3D / Spiders (2013) BDRip 1080p | 3D-Video | L1

48 | 7

8.39 ГБ

В этой теме нет новых непрочитанных сообщений. Возвращение Буратино (2013) BDRip 1080p | 3D-Video

4 | 3

5.63 ГБ

В этой теме нет новых непрочитанных сообщений. Best of 3D (Vol. 1-9) (2013) BDRip 1080p от Ash61 | 3D-Video | halfOU

146 | 133

35.86 ГБ

В этой теме нет новых непрочитанных сообщений. Турбо / Turbo (2013) BDRip 1080p | 3D-Video | halfOU

75 | 16

5.86 ГБ

В этой теме нет новых непрочитанных сообщений. Смурфики 2 / The Smurfs 2 (2013) BDRip 1080p | 3D-Video | halfOU

125 | 15

9.8 ГБ




Вы не можете начинать темы
Вы не можете отвечать на сообщения
Вы не можете редактировать свои сообщения
Вы не можете удалять свои сообщения
Вы не можете добавлять вложения

Перейти:  
Для Мосгорсуда, Роскомнадзора и рекламодателей: mosgorsud-torrent[собачка]yandex.ru
 Вход
ppkBB3cker v.2 © 2008-2014 @ PPK
[ Time : 0.043s | 14 Queries | GZIP : Off ]

Торрент трекер RUTOR.IN, Не можете зайти на rutor.org? Какой новый адрес рутор? Какое зеркало рутор? Не работает rutor.org и зеркала? Тогда наш торрент специально для вас. Rutor.in неофициальное зеркало rutor. В случае если у Вас заблокирован rutor или вдруг Вы не можете на него зайти, то Вы без труда сможете скачать бесплатно и без рекламы последние новинки кино, игр, сериалов и прочего у нас, на Rutor.in. Не нужно использовать прокси, чтобы зайти на рутор, достаточно воспользоваться нашим ресурсом. Все новые фильмы, игры, сериалы, книги и музыка за 2013 и 2014 годы через торрент бесплатно. Скачивайте фильмы в хорошем качестве, игры для пк, xbox, playstation без регистрации. У нас вы найдете новые Зарубежные сериалы и Русские сериалы 2013, 2014, 2015 годов. Оставайтесь с нами, качайте любимые фильмы, игры, сериалы, книги и музыку.