img image001 image001 image001 image001 image001 image001 image001 image001 image001 image001 image001 image001 image001 image001 image001

Planets Sun Sun Sun
Статистика раздачи
Автор: PriZraK | Размер: 311.21 МБ | Добавлен: 31 авг 2016
Раздают: 129    Качают: 10
Скачать торрент
Скачать торрент
Описание торрента

СообщениеДобавлено: 31 авг 2016 


Информация о фильме
Название: Возраст любви
Год выхода: 2016
Жанр: Мелодрама
Режиссер: Андрей Селиванов
В ролях: Наталья Терехова, Сергей Мухин, Маргарита Дьяченкова, Александр Макогон, Иван Шмаков, Данила Якушев
О фильме:
Живут люди, живут и не подозревают о существовании своей истинной любви, своей второй половины. Вот и Игорь с Ольгой тоже об этом не знали, до поры, до времени... Жили себе каждый своей рутинной повседневностью, состояли в браке, воспитывали детей и не о чем с возрастом не мечтали. Однако, есть, что-то необъяснимое, какие-то силы свыше, играющие жизнями в рулетку проведений. Их сводит случай в санатории, где каждый из них хотел обрести покой от суеты повседневной реальности. Эта встреча будто открывает им глаза на новый мир счастья пробуждая забытые, а может и неизведанные чувства словно это происходит не с ними и в их жизни. Но эти несколько дней, как мгновенья пролетают возвращая их к тому от чего ушли и каждый возвращается домой. Но время вспять повернуть нельзя, как нельзя забыть и эту встречу. Но не все так просто разрушить и начать заново…

Страна: Россия
Студия: Кинокомпания "Русское"
Продолжительность: 01:31:01
Перевод: Не требуется
Файл
Кодек: h264
Качество: HDTVRip| КПК
Видео: MPEG4 Video, (H264), 480x272, 25fps, 350kbps, 0.11Bits/Pixel
Звук: AAC, 44100Hz, 2ch(LC), 125kbps
Субтитры: Отсутствуют
Семпл
General
Complete name : E:Изготовление рипаVozrast.ljubvi.2016.HDTVRip.shkiper.mp4
Format : MPEG-4
Format profile : Base Media
Codec ID : isom (isom/avc1)
File size : 311 MiB
Duration : 1h 31mn
Overall bit rate mode : Variable
Overall bit rate : 478 Kbps
Encoded date : UTC 2016-08-28 20:30:48
Tagged date : UTC 2016-08-28 20:30:48
Video
ID : 1
Format : AVC
Format/Info : Advanced Video Codec
Format profile : Baseline@L3
Format settings, CABAC : No
Format settings, ReFrames : 1 frame
Codec ID : avc1
Codec ID/Info : Advanced Video Coding
Duration : 1h 31mn
Bit rate : 350 Kbps
Maximum bit rate : 1 024 Kbps
Width : 480 pixels
Height : 272 pixels
Display aspect ratio : 16:9
Frame rate mode : Constant
Frame rate : 25.000 fps
Color space : YUV
Chroma subsampling : 4:2:0
Bit depth : 8 bits
Scan type : Progressive
Bits/(Pixel*Frame) : 0.107
Stream size : 228 MiB (73%)
Title : Imported with GPAC 0.4.6-DEV (internal rev. 5)
Writing library : x264 core 67 r1165M 6841c5e
Encoding settings : cabac=0 / ref=1 / deblock=1:0:0 / analyse=0x1:0 / me=hex / subme=6 / psy_rd=1.0:0.0 / mixed_ref=0 / me_range=16 / chroma_me=1 / trellis=0 / 8x8dct=0 / cqm=0 / deadzone=21,11 / chroma_qp_offset=-2 / threads=3 / nr=0 / decimate=1 / mbaff=0 / bframes=0 / keyint=250 / keyint_min=25 / scenecut=40 / rc=2pass / bitrate=350 / ratetol=1.0 / qcomp=0.60 / qpmin=10 / qpmax=51 / qpstep=4 / cplxblur=20.0 / qblur=0.5 / vbv_maxrate=1500 / vbv_bufsize=2000 / ip_ratio=1.40 / aq=1:1.00
Encoded date : UTC 2016-08-28 20:30:48
Tagged date : UTC 2016-08-28 20:31:23
Audio
ID : 2
Format : AAC
Format/Info : Advanced Audio Codec
Format profile : LC
Codec ID : 40
Duration : 1h 31mn
Bit rate mode : Variable
Bit rate : 126 Kbps
Maximum bit rate : 201 Kbps
Channel(s) : 2 channels
Channel positions : Front: L R
Sampling rate : 44.1 KHz
Frame rate : 43.066 fps (1024 spf)
Compression mode : Lossy
Stream size : 81.7 MiB (26%)
Title : Imported with GPAC 0.4.6-DEV (internal rev. 5)
Encoded date : UTC 2016-08-28 20:31:14
Tagged date : UTC 2016-08-28 20:31:23

Релиз от:



   Похожие торренты   Торрент   Размер 
В этой теме нет новых непрочитанных сообщений. Возраст любви (2016) HDTVRip-AVC от Files-x

295 | 10

1.37 ГБ

В этой теме нет новых непрочитанных сообщений. Возраст любви (2016) HDTVRip от Portablius

619 | 14

745.22 МБ

В этой теме нет новых непрочитанных сообщений. Возраст любви (2016) HDTVRip 720p от MediaClub

2432 | 99

2.43 ГБ

В этой теме нет новых непрочитанных сообщений. \Возраст любви (2015) HDTVRip от Files-x

2105 | 140

1.37 ГБ

В этой теме нет новых непрочитанных сообщений. Возраст любви [01-02 из 2] (2016) SATRip от Torrent-Z

748 | 51

1.1 ГБ

В этой теме нет новых непрочитанных сообщений. Даниэла Стил - Возраст Любви (2005) (2011) МР3

62 | 4

556.78 МБ

В этой теме нет новых непрочитанных сообщений. Возраст любви (2015) HDTV 1080i от Files-x

190 | 33

5.17 ГБ




Вы не можете начинать темы
Вы не можете отвечать на сообщения
Вы не можете редактировать свои сообщения
Вы не можете удалять свои сообщения
Вы не можете добавлять вложения

Перейти:  
Для Мосгорсуда, Роскомнадзора и рекламодателей: mosgorsud-torrent[собачка]yandex.ru
 Вход
ppkBB3cker v.2 © 2008-2014 @ PPK
[ Time : 0.612s | 15 Queries | GZIP : Off ]

Торрент трекер RUTOR.IN, Не можете зайти на rutor.org? Какой новый адрес рутор? Какое зеркало рутор? Не работает rutor.org и зеркала? Тогда наш торрент специально для вас. Rutor.in неофициальное зеркало rutor. В случае если у Вас заблокирован rutor или вдруг Вы не можете на него зайти, то Вы без труда сможете скачать бесплатно и без рекламы последние новинки кино, игр, сериалов и прочего у нас, на Rutor.in. Не нужно использовать прокси, чтобы зайти на рутор, достаточно воспользоваться нашим ресурсом. Все новые фильмы, игры, сериалы, книги и музыка за 2013 и 2014 годы через торрент бесплатно. Скачивайте фильмы в хорошем качестве, игры для пк, xbox, playstation без регистрации. У нас вы найдете новые Зарубежные сериалы и Русские сериалы 2013, 2014, 2015 годов. Оставайтесь с нами, качайте любимые фильмы, игры, сериалы, книги и музыку.