img image001 image001 image001 image001 image001 image001 image001 image001 image001 image001 image001 image001 image001 image001 image001

Planets Sun Sun Sun
Статистика раздачи
Автор: PriZraK | Размер: 1.09 ГБ | Добавлен: 01 сен 2016
Раздают: 19    Качают: 8
Скачать торрент
Скачать торрент
Описание торрента

СообщениеДобавлено: 01 сен 2016 

Год выпуска: 1956
Страна: СССР
Студии: Одесская киностудия
Жанр: мелодрама
Продолжительность: 01:30:04
Субтитры: нет
Режиссер: Марлен Хуциев, Феликс Миронер
В ролях:
Нина Иванова, Николай Рыбников, Владимир Гуляев, Валентина Пугачёва, Геннадий Юхтин, Римма Шорохова, Николай Ключнев, Марина Гаврилко, Юрий Белов, Валентин Брылеев...
Полный список актёров
Описание:
История любви юной учительницы школы рабочей молодежи и ее ученика - одна из самых популярных отечественных мелодрам. Герой фильма, парень лихой и самоуверенный, лучший сталевар завода, не привык к отказам женщин. и вдруг его домогательства получают отпор!.. Поначалу он пытается играть в безразличие. Но проходит время - и он вдруг понимает, что к нему впервые пришло настоящее, глубокое чувство.






Исходник: HDTV
Тип релиза:HDTVRip
Контейнер: AVI
Видео: 704x384 (1,85:1), 25,000 кадров/сек, XviD ~ 1529 kbps avg, 0.226 bit/pixel
Аудио: 48 kHz, Dolby Digital AC3 2.0, 192 kbps
Раздача от:
Общее
Полное имя : Vesna.na.Zarechnoy.ulice.1956.HDTVRip_[New-team]_by_AVP_Studio.avi
Формат : AVI
Формат/Информация : Audio Video Interleave
Размер файла : 1,09 Гбайт
Продолжительность : 1 ч. 30 м.
Общий поток : 1731 Кбит/сек
Программа кодирования : VirtualDubMod 1.5.10.3 | www.virtualdub-fr.org || (build 2550/release)
Библиотека кодирования : VirtualDubMod build 2550/release
Видео
Идентификатор : 0
Формат : MPEG-4 Visual
Профиль формата : Advanced Simple@L5
Параметр BVOP формата : 1
Параметр QPel формата : Нет
Параметр GMC формата : Без точки перехода
Параметр матрицы формата : Выборочная
Идентификатор кодека : XVID
Идентификатор кодека/Подсказка : XviD
Продолжительность : 1 ч. 30 м.
Битрейт : 1529 Кбит/сек
Ширина : 704 пикселя
Высота : 384 пикселя
Соотношение сторон : 1,85:1
Частота кадров : 25,000 кадров/сек
Цветовое пространство : YUV
Субдискретизация насыщенности : 4:2:0
Битовая глубина : 8 бит
Тип развёртки : Прогрессивная
Метод сжатия : С потерями
Бит/(Пиксели*Кадры) : 0.226
Размер потока : 985 Мбайт (88%)
Библиотека кодирования : XviD 1.2.1 (UTC 2008-12-04)
Аудио
Идентификатор : 1
Формат : AC-3
Формат/Информация : Audio Coding 3
Расширение режима : CM (complete main)
Параметр Endianness формата : Big
Идентификатор кодека : 2000
Продолжительность : 1 ч. 30 м.
Вид битрейта : Постоянный
Битрейт : 192 Кбит/сек
Каналы : 2 канала
Расположение каналов : Front: L R
Частота : 48,0 КГц
Частота кадров : 31,250 кадров/сек (1536 spf)
Метод сжатия : С потерями
Размер потока : 124 Мбайт (11%)
Выравнивание : Разделение по промежуткам
Продолжительность промежутка : 40 мс. (1,00 видеокадр)
Время предзагрузки промежутка : 500 мс





   Похожие торренты   Торрент   Размер 
В этой теме нет новых непрочитанных сообщений. Весна на Заречной улице (1956) HDTVRip-AVC от New-Team

95 | 12

1.46 ГБ

В этой теме нет новых непрочитанных сообщений. Весна на Заречной улице (1956) HDTVRip от New-Team

32 | 4

744.51 МБ

В этой теме нет новых непрочитанных сообщений. Весна на Заречной улице (1956) BDRip 1080p от NOLIMITS-TEAM

3 | 4

4.38 ГБ

В этой теме нет новых непрочитанных сообщений. Весна на Заречной улице (1956) HDTVRip от ivandubskoj | Цветная версия

704 | 44

1.46 ГБ

В этой теме нет новых непрочитанных сообщений. Весна на Заречной улице (1956) HDTVRip от ivandubskoj | Цветная версия

142 | 20

745.68 МБ

В этой теме нет новых непрочитанных сообщений. Весна на Заречной улице (1956) HDTVRip-AVC от ExKinoRay | Цветная версия

610 | 25

4.05 ГБ

В этой теме нет новых непрочитанных сообщений. Весна на Заречной улице (1956) HDTVRip 720p от ivandubskoj | Цветная версия

352 | 32

2.92 ГБ




Вы не можете начинать темы
Вы не можете отвечать на сообщения
Вы не можете редактировать свои сообщения
Вы не можете удалять свои сообщения
Вы не можете добавлять вложения

Перейти:  
Для Мосгорсуда, Роскомнадзора и рекламодателей: mosgorsud-torrent[собачка]yandex.ru
 Вход
ppkBB3cker v.2 © 2008-2014 @ PPK
[ Time : 0.032s | 15 Queries | GZIP : Off ]

Торрент трекер RUTOR.IN, Не можете зайти на rutor.org? Какой новый адрес рутор? Какое зеркало рутор? Не работает rutor.org и зеркала? Тогда наш торрент специально для вас. Rutor.in неофициальное зеркало rutor. В случае если у Вас заблокирован rutor или вдруг Вы не можете на него зайти, то Вы без труда сможете скачать бесплатно и без рекламы последние новинки кино, игр, сериалов и прочего у нас, на Rutor.in. Не нужно использовать прокси, чтобы зайти на рутор, достаточно воспользоваться нашим ресурсом. Все новые фильмы, игры, сериалы, книги и музыка за 2013 и 2014 годы через торрент бесплатно. Скачивайте фильмы в хорошем качестве, игры для пк, xbox, playstation без регистрации. У нас вы найдете новые Зарубежные сериалы и Русские сериалы 2013, 2014, 2015 годов. Оставайтесь с нами, качайте любимые фильмы, игры, сериалы, книги и музыку.