img image001 image001 image001 image001 image001 image001 image001 image001 image001 image001 image001 image001 image001 image001 image001

Planets Sun Sun Sun
Статистика раздачи
Автор: PriZraK | Размер: 385.81 МБ | Добавлен: 02 сен 2016
Раздают: 91    Качают: 3
Скачать торрент
Скачать торрент
Описание торрента

СообщениеДобавлено: 02 сен 2016 


Информация о фильме
Название: Трамвай в другие города
Год выхода: 1962
Жанр: детский, короткометражка
Режиссер: Юлий Файт
В ролях: Андрюша Титов, Женя Богданов, Юрий Белов, Геннадий Шпаликов
О фильме:
Два дошкольника решили, что ночью трамваи уезжают куда-то отдыхать и если сесть поздним вечером в трамвай, то можно уехать в другой город. В трамвае они встретились с различными людьми, и все оказывались интересными. Интересно было также наблюдать за жизнью большого города, сверкавшего вечерними огнями. На последней остановке приятели сошли и оказались на берегу какого-то водоёма...

Производство: СССР / Мосфильм
Продолжительность: 00:20:34
Перевод: оригинал
Файл
Качество: TVRip
Формат: AVI
Видео: XviD, 720x544 (4:3), 25.000 fps, 2421 kbps, 0.247 bit/pixel
Звук: русский, AC3 2.0, 48 kHz, 192 kbps
Формат : AVI
Формат/Информация : Audio Video Interleave
Размер файла : 386 Мбайт
Продолжительность : 20 м.
Общий поток : 2622 Кбит/сек
Программа кодирования : VirtualDubMod 1.5.10.3 | www.virtualdub-fr.org || (build 2550/release)
Библиотека кодирования : VirtualDubMod build 2550/release
Видео
Идентификатор : 0
Формат : MPEG-4 Visual
Профиль формата : Advanced Simple@L5
Параметр BVOP формата : 2
Параметр QPel формата : Нет
Параметр GMC формата : Без точки перехода
Параметр матрицы формата : Default (MPEG)
Идентификатор кодека : XVID
Идентификатор кодека/Подсказка : XviD
Продолжительность : 20 м.
Битрейт : 2421 Кбит/сек
Ширина : 720 пикселей
Высота : 544 пикселя
Соотношение сторон : 4:3
Частота кадров : 25,000 кадров/сек
Цветовое пространство : YUV
Субдискретизация насыщенности : 4:2:0
Битовая глубина : 8 бит
Тип развёртки : Прогрессивная
Метод сжатия : С потерями
Бит/(Пиксели*Кадры) : 0.247
Размер потока : 356 Мбайт (92%)
Библиотека кодирования : XviD 1.2.1 (UTC 2008-12-04)
Аудио
Идентификатор : 1
Формат : AC-3
Формат/Информация : Audio Coding 3
Расширение режима : CM (complete main)
Параметр Endianness формата : Big
Идентификатор кодека : 2000
Продолжительность : 20 м.
Вид битрейта : Постоянный
Битрейт : 192 Кбит/сек
Каналы : 2 канала
Расположение каналов : Front: L R
Частота : 48,0 КГц
Метод сжатия : С потерями
Размер потока : 28,2 Мбайт (7%)
Выравнивание : Разделение по промежуткам
Продолжительность промежутка : 40 мс. (1,00 видеокадр)
Время предзагрузки промежутка : 500 мс.



   Похожие торренты   Торрент   Размер 
В этой теме нет новых непрочитанных сообщений. Юрий Подольский (сост.) - Атлантида и другие исчезнувшие города (2015) FB2, RTF

243 | 7

10.1 МБ

В этой теме нет новых непрочитанных сообщений. Другие / The Others [S01] (2000) TVRip | P

63 | 68

4.25 ГБ

В этой теме нет новых непрочитанных сообщений. ... и другие официальные лица (1976) TVRip

45 | 14

1.09 ГБ

В этой теме нет новых непрочитанных сообщений. Голубые города (1985) TVRip

0 | 15

688.96 МБ

В этой теме нет новых непрочитанных сообщений. Антинея, возлюбленная из погребенного города / Атлантида / L'Atlantide (1961) TVRip | L1

30 | 4

1.34 ГБ

В этой теме нет новых непрочитанных сообщений. Пилат и другие – Фильм на Страстную пятницу / Pilatus und andere - Ein Film für Karfreitag (1972) TVRip | P

23 | 9

697.62 МБ

В этой теме нет новых непрочитанных сообщений. Большая дорога (1962) TVRip

5 | 6

1.37 ГБ




Вы не можете начинать темы
Вы не можете отвечать на сообщения
Вы не можете редактировать свои сообщения
Вы не можете удалять свои сообщения
Вы не можете добавлять вложения

Перейти:  
Для Мосгорсуда, Роскомнадзора и рекламодателей: mosgorsud-torrent[собачка]yandex.ru
 Вход
ppkBB3cker v.2 © 2008-2014 @ PPK
[ Time : 0.024s | 14 Queries | GZIP : Off ]

Торрент трекер RUTOR.IN, Не можете зайти на rutor.org? Какой новый адрес рутор? Какое зеркало рутор? Не работает rutor.org и зеркала? Тогда наш торрент специально для вас. Rutor.in неофициальное зеркало rutor. В случае если у Вас заблокирован rutor или вдруг Вы не можете на него зайти, то Вы без труда сможете скачать бесплатно и без рекламы последние новинки кино, игр, сериалов и прочего у нас, на Rutor.in. Не нужно использовать прокси, чтобы зайти на рутор, достаточно воспользоваться нашим ресурсом. Все новые фильмы, игры, сериалы, книги и музыка за 2013 и 2014 годы через торрент бесплатно. Скачивайте фильмы в хорошем качестве, игры для пк, xbox, playstation без регистрации. У нас вы найдете новые Зарубежные сериалы и Русские сериалы 2013, 2014, 2015 годов. Оставайтесь с нами, качайте любимые фильмы, игры, сериалы, книги и музыку.