img image001 image001 image001 image001 image001 image001 image001 image001 image001 image001 image001 image001 image001 image001 image001

Planets Sun Sun Sun
Статистика раздачи
Автор: PriZraK | Размер: 360.29 МБ | Добавлен: 03 сен 2016
Раздают: 63    Качают: 5
Скачать торрент
Скачать торрент
Описание торрента

СообщениеДобавлено: 03 сен 2016 


Информация о фильме
Название: Мальчик и голубь
Год выхода: 1961
Жанр: новелла, драма, короткометражка
Режиссер: Андрей Михалков-Кончаловский, Евгений Осташенко
В ролях: Николай Бурляев, Евгений Урбанский, Владимир Шурупов
О фильме:
Мальчик мечтает о голубе — рисует его на стене, часами наблюдает птиц в небе. Но на рынке за голубя просят 100 рублей! Мальчик выменивает птицу мечты на альбом с отцовскими марками и наступает миг счастья — со своей крыши мальчик выпускает в облака своего голубя! Но голубь не знал, что у него новый хозяин и вернулся в родную голубятню к барыге. Мальчик бежал за своим голубем через весь город, но дворовый закон суров: «Выкуп!»…
ВГИК, курсовая работа А. Кончаловского. Именно из этого поэтического и грустного фильма шестиклассник Коля Бурляев спустя время "перекочевал" в первый полнометражный фильм Андрея Тарковского "Иваново детство".

Страна: СССР
Продолжительность: 00:19:12
Перевод: оригинал
Файл
Качество: TVRip
Формат: AVI
Видео: XviD, 720x544 (4:3), 25.000 fps, 2420 kbps, 0.247 bit/pixel
Аудио: русский, AC3 2.0, 48 kHz, 192 kbps
Формат : AVI
Формат/Информация : Audio Video Interleave
Размер файла : 360 Мбайт
Продолжительность : 19 м.
Общий поток : 2622 Кбит/сек
Программа кодирования : VirtualDubMod 1.5.10.3 | www.virtualdub-fr.org || (build 2550/release)
Библиотека кодирования : VirtualDubMod build 2550/release
Видео
Идентификатор : 0
Формат : MPEG-4 Visual
Профиль формата : Advanced Simple@L5
Параметр BVOP формата : 2
Параметр QPel формата : Нет
Параметр GMC формата : Без точки перехода
Параметр матрицы формата : Default (H.263)
Идентификатор кодека : XVID
Идентификатор кодека/Подсказка : XviD
Продолжительность : 19 м.
Битрейт : 2420 Кбит/сек
Ширина : 720 пикселей
Высота : 544 пикселя
Соотношение сторон : 4:3
Частота кадров : 25,000 кадров/сек
Цветовое пространство : YUV
Субдискретизация насыщенности : 4:2:0
Битовая глубина : 8 бит
Тип развёртки : Прогрессивная
Метод сжатия : С потерями
Бит/(Пиксели*Кадры) : 0.247
Размер потока : 333 Мбайт (92%)
Библиотека кодирования : XviD 1.2.1 (UTC 2008-12-04)
Аудио
Идентификатор : 1
Формат : AC-3
Формат/Информация : Audio Coding 3
Расширение режима : CM (complete main)
Параметр Endianness формата : Big
Идентификатор кодека : 2000
Продолжительность : 19 м.
Вид битрейта : Постоянный
Битрейт : 192 Кбит/сек
Каналы : 2 канала
Расположение каналов : Front: L R
Частота : 48,0 КГц
Метод сжатия : С потерями
Размер потока : 26,4 Мбайт (7%)
Выравнивание : Разделение по промежуткам
Продолжительность промежутка : 40 мс. (1,00 видеокадр)
Время предзагрузки промежутка : 500 мс.



   Похожие торренты   Торрент   Размер 
В этой теме нет новых непрочитанных сообщений. Чиполлино, Заколдованный мальчик (1955, 1961) DVDRip-AVC от Youtracker

157 | 29

1.46 ГБ

В этой теме нет новых непрочитанных сообщений. Чиполлино, Заколдованный мальчик (1955, 1961) DVDRip от Youtracker

827 | 205

893.21 МБ

В этой теме нет новых непрочитанных сообщений. Чиполлино, Заколдованный мальчик (1955, 1961) DVDRip от Youtracker

181 | 35

1.45 ГБ

В этой теме нет новых непрочитанных сообщений. Дорогой мальчик (1974) TVRip

24 | 3

1.09 ГБ

В этой теме нет новых непрочитанных сообщений. Мальчик с восемью конечностями / The 8-Limbed Boy (2010) TVRip от Files-x

1 | 3

620.25 МБ

В этой теме нет новых непрочитанных сообщений. Мальчик, наделённый божественной силой / The Boy With Divine Power (2007) TVRip

0 | 5

405.42 МБ

В этой теме нет новых непрочитанных сообщений. Мяч и поле (1961) TVRip | L2

9 | 10

236.74 МБ




Вы не можете начинать темы
Вы не можете отвечать на сообщения
Вы не можете редактировать свои сообщения
Вы не можете удалять свои сообщения
Вы не можете добавлять вложения

Перейти:  
Для Мосгорсуда, Роскомнадзора и рекламодателей: mosgorsud-torrent[собачка]yandex.ru
 Вход
ppkBB3cker v.2 © 2008-2014 @ PPK
[ Time : 1.190s | 14 Queries | GZIP : Off ]

Торрент трекер RUTOR.IN, Не можете зайти на rutor.org? Какой новый адрес рутор? Какое зеркало рутор? Не работает rutor.org и зеркала? Тогда наш торрент специально для вас. Rutor.in неофициальное зеркало rutor. В случае если у Вас заблокирован rutor или вдруг Вы не можете на него зайти, то Вы без труда сможете скачать бесплатно и без рекламы последние новинки кино, игр, сериалов и прочего у нас, на Rutor.in. Не нужно использовать прокси, чтобы зайти на рутор, достаточно воспользоваться нашим ресурсом. Все новые фильмы, игры, сериалы, книги и музыка за 2013 и 2014 годы через торрент бесплатно. Скачивайте фильмы в хорошем качестве, игры для пк, xbox, playstation без регистрации. У нас вы найдете новые Зарубежные сериалы и Русские сериалы 2013, 2014, 2015 годов. Оставайтесь с нами, качайте любимые фильмы, игры, сериалы, книги и музыку.