img image001 image001 image001 image001 image001 image001 image001 image001 image001 image001 image001 image001 image001 image001 image001

Planets Sun Sun Sun
Статистика раздачи
Автор: PriZraK | Размер: 744.84 МБ | Добавлен: 03 сен 2016
Раздают: 16    Качают: 8
Скачать торрент
Скачать торрент
Описание торрента

СообщениеДобавлено: 03 сен 2016 

Страна: СССР
Производство: Мосфильм
Жанр: драма, мелодрама
Год выпуска: 1956
Продолжительность: 01:30:07
Перевод: Не требуется
Cубтитры: нет
Оригинальная аудиодорожка: русский
Режиссер: Василий Ордынский
В ролях:
Ольга Бган, Владимир Гусев, Владимир Андреев, Александр Ханов, Наталья Серебрянникова, Нина Дорошина, Григорий Абрикосов, Валентин Маклашин, Виктор Терехов, Иван Кузнецов, Лидия Драновская...
Полный список актёров
Описание:
Надя Смирнова приехала в Москву поступать в институт. Экзамены она не сдала, но решила остаться в столице. Судьба свела ее с молодым человеком из интеллигентной семьи, которого Надя полюбила. Вскоре она родила ребенка, но Виталий, оказавшийся подлецом, бросил ее.
Гордая девушка уходит из негостеприимного дома и решает больше никогда туда не возвращаться. На ее руках - грудной ребенок, ей негде жить. На автобусной остановке Надя случайно знакомится с молодым студентом, который помогает ей устроиться. Юноша готов ради нее на все, но девушка больше не верит людям...





Источник: DVD5 R5
Качество видео: DVDRip
Формат видео: AVI
Видео: 640x480 (4:3), 25 fps, XviD ~ 1018 kbps avg, 0.133 bit/pixel
Аудио: 48 kHz, MP3 2.0, 128 kbps
Раздача от:
Общее
Полное имя : Chelovek.rodilsya.1956.DVDRip-745_[New-team]_by_AVP_Studio.avi
Формат : AVI
Формат/Информация : Audio Video Interleave
Размер файла : 745 Мбайт
Продолжительность : 1 ч. 30 м.
Общий поток : 1156 Кбит/сек
Программа кодирования : VirtualDubMod 1.5.10.3 | www.virtualdub-fr.org || (build 2550/release)
Библиотека кодирования : VirtualDubMod build 2550/release
Видео
Идентификатор : 0
Формат : MPEG-4 Visual
Профиль формата : Advanced Simple@L5
Параметр BVOP формата : 1
Параметр QPel формата : Нет
Параметр GMC формата : Без точки перехода
Параметр матрицы формата : Выборочная
Идентификатор кодека : XVID
Идентификатор кодека/Подсказка : XviD
Продолжительность : 1 ч. 30 м.
Битрейт : 1018 Кбит/сек
Ширина : 640 пикселей
Высота : 480 пикселей
Соотношение сторон : 4:3
Частота кадров : 25,000 кадров/сек
Цветовое пространство : YUV
Субдискретизация насыщенности : 4:2:0
Битовая глубина : 8 бит
Тип развёртки : Прогрессивная
Метод сжатия : С потерями
Бит/(Пиксели*Кадры) : 0.133
Размер потока : 656 Мбайт (88%)
Библиотека кодирования : XviD 1.2.1 (UTC 2008-12-04)
Аудио
Идентификатор : 1
Формат : MPEG Audio
Версия формата : Version 1
Профиль формата : Layer 3
Идентификатор кодека : 55
Идентификатор кодека/Подсказка : MP3
Продолжительность : 1 ч. 30 м.
Вид битрейта : Постоянный
Битрейт : 128 Кбит/сек
Каналы : 2 канала
Частота : 48,0 КГц
Метод сжатия : С потерями
Размер потока : 82,5 Мбайт (11%)
Выравнивание : Соединение по промежуткам
Продолжительность промежутка : 40 мс. (1,00 видеокадр)
Время предзагрузки промежутка : 504 мс.
Библиотека кодирования : LAME3.99r
Настройки программы : -m s -V 4 -q 2 -lowpass 17 -b 128





   Похожие торренты   Торрент   Размер 
В этой теме нет новых непрочитанных сообщений. Человек родился (1956) DVDRip от New-Team

3 | 4

1.09 ГБ

В этой теме нет новых непрочитанных сообщений. Человек родился (1956) DVDRip-AVC от New-Team

33 | 12

1.09 ГБ

В этой теме нет новых непрочитанных сообщений. Человек родился (1956) DVDRip-AVC от ExKinoRay

39 | 15

1.55 ГБ

В этой теме нет новых непрочитанных сообщений. Обыкновенный человек (1956) SATRip от New-Team

4 | 0

1.46 ГБ

В этой теме нет новых непрочитанных сообщений. Обыкновенный человек (1956) SATRip-AVC от New-Team

3 | 0

1.46 ГБ

В этой теме нет новых непрочитанных сообщений. Обыкновенный человек (1956) SATRip от New-Team

3 | 0

745.57 МБ

В этой теме нет новых непрочитанных сообщений. Специальный корреспондент. Человек родился [эфир от 13.11] (2011) SATRip от RiperAM

0 | 2

639.51 МБ




Вы не можете начинать темы
Вы не можете отвечать на сообщения
Вы не можете редактировать свои сообщения
Вы не можете удалять свои сообщения
Вы не можете добавлять вложения

Перейти:  
Для Мосгорсуда, Роскомнадзора и рекламодателей: mosgorsud-torrent[собачка]yandex.ru
 Вход
ppkBB3cker v.2 © 2008-2014 @ PPK
[ Time : 0.030s | 16 Queries | GZIP : Off ]

cron