img image001 image001 image001 image001 image001 image001 image001 image001 image001 image001 image001 image001 image001 image001 image001

Planets Sun Sun Sun
Статистика раздачи
Автор: PriZraK | Размер: 744 МБ | Добавлен: 03 сен 2016, 19:51
Раздают: 32    Качают: 15
Скачать торрент
Скачать торрент
Описание торрента

СообщениеДобавлено: 03 сен 2016, 19:51 


Информация о фильме
Название: Родня
Год выхода: 1981
Жанр: Драма
Режиссёр: Никита Михалков
В ролях: Нонна Мордюкова, Светлана Крючкова, Андрей Петров, Иван Бортник, Юрий Богатырев, Федор Стуков, Всеволод Ларионов, Никита Михалков, Александр Адабашьян, Павел Лебешев, Лариса Кузнецова, Олег Меньшиков
О фильме: Маруся, очень простая, грубоватая, но чрезвычайно душевная женщина из деревни, едет к дочери в город и знакомится в поезде с главным инженером рыбзавода, тоже немолодым, но очень добрым и милым человеком. В городе Маруся узнает, что дочь не любит мужа, с которым не живет, хотя и не развелась, не любит свою работу, на которую выучилась, чтобы только уехать из села, да и жизнь свою, похоже, не очень любит. Все это отрицательно сказывается на внучке. С пещерной непосредственностью и самыми лучшими намерениями Маруся пытается наладить семейные отношения дочери, дав ее мужу по морде. Она продолжает знакомство с работником рыбзавода, навещает своего окончательно спившегося мужа, которого в свое время выгнала из дома, пытается поправить и его судьбу. На фоне различных персонажей, встречающихся на пути Маруси, она демонстрирует дикую чистоту огромного сердца, шокируя окружающих, да и зрителя тоже. Действуя из самых добрых побуждений, она не в состоянии понять, почему ее вмешательство вызывает столь бурный протест...

Страна: СССР
Студия: Мосфильм
Продолжительность: 01:32:25
Перевод: Не требуется (оригинальный)
Файл
Формат: avi
Качество: HDTVRip (HDTV.1080i)
Видео: XviD, 640х464, 25fps, 988kbps
Аудио: MPEG Layer 3, 2ch, 48000Hz, 128kbps

General
Complete name : Rodna.1981.O.HDTVRip.700.CurHaJI.avi
Format : AVI
Format/Info : Audio Video Interleave
File size : 744 MiB
Duration : 1h 32mn
Overall bit rate : 1 126 Kbps
Movie name : Rodna.1981.O.HDTVRip.700.CurHaJI
Writing application : VirtualDubMod 1.5.10.3 | www.virtualdub-fr.org || (build 2550/release)
Writing library : VirtualDub build 35491/release
Video
ID : 0
Format : MPEG-4 Visual
Format profile : Advanced Simple@L5
Format settings, BVOP : 2
Format settings, QPel : No
Format settings, GMC : No warppoints
Format settings, Matrix : Custom
Codec ID : XVID
Codec ID/Hint : XviD
Duration : 1h 32mn
Bit rate : 988 Kbps
Width : 640 pixels
Height : 464 pixels
Display aspect ratio : 1.379
Frame rate : 25.000 fps
Color space : YUV
Chroma subsampling : 4:2:0
Bit depth : 8 bits
Scan type : Progressive
Compression mode : Lossy
Bits/(Pixel*Frame) : 0.133
Stream size : 653 MiB (88%)
Writing library : XviD 73
Audio
ID : 1
Format : MPEG Audio
Format version : Version 1
Format profile : Layer 3
Codec ID : 55
Codec ID/Hint : MP3
Duration : 1h 32mn
Bit rate mode : Constant
Bit rate : 128 Kbps
Channel(s) : 2 channels
Sampling rate : 48.0 KHz
Compression mode : Lossy
Stream size : 84.6 MiB (11%)
Alignment : Aligned on interleaves
Interleave, duration : 40 ms (1.00 video frame)
Interleave, preload duration : 504 ms
Writing library : LAME3.99r
Encoding settings : -m s -V 4 -q 2 -lowpass 17 -b 128


Релиз от:



   Похожие торренты   Торрент   Размер 
В этой теме нет новых непрочитанных сообщений. Родня (1981) DVDRip

441 | 28

1.37 ГБ

В этой теме нет новых непрочитанных сообщений. Родня (1981) DVDRip-AVC

1032 | 58

1.91 ГБ

В этой теме нет новых непрочитанных сообщений. Родня (1981) HDRip-AVC

80 | 7

1.36 ГБ

В этой теме нет новых непрочитанных сообщений. Родня (1981) DVDRip от KinoZalSat

22 | 15

1.43 ГБ

В этой теме нет новых непрочитанных сообщений. Родня (1993) DVDRip

5 | 4

182.12 МБ

В этой теме нет новых непрочитанных сообщений. Чужая родня (1955) TVRip

97 | 17

700.3 МБ

В этой теме нет новых непрочитанных сообщений. Чужая родня (1955) DVDRip-AVC от New-Team

12 | 3

1.46 ГБ




Вы не можете начинать темы
Вы не можете отвечать на сообщения
Вы не можете редактировать свои сообщения
Вы не можете удалять свои сообщения
Вы не можете добавлять вложения

Перейти:  
Для Мосгорсуда, Роскомнадзора и рекламодателей: mosgorsud-torrent[собачка]yandex.ru
Настройки
ppkBB3cker v.2 © 2008-2014 @ PPK
[ Time : 0.021s | 16 Queries | GZIP : Off ]
CGP [Extreme] output time : 0.00024s | 0 Queries | GZIP : Off

Торрент трекер RUTOR.IN, Не можете зайти на rutor.org? Какой новый адрес рутор? Какое зеркало рутор? Не работает rutor.org и зеркала? Тогда наш торрент специально для вас. Rutor.in неофициальное зеркало rutor. В случае если у Вас заблокирован rutor или вдруг Вы не можете на него зайти, то Вы без труда сможете скачать бесплатно и без рекламы последние новинки кино, игр, сериалов и прочего у нас, на Rutor.in. Не нужно использовать прокси, чтобы зайти на рутор, достаточно воспользоваться нашим ресурсом. Все новые фильмы, игры, сериалы, книги и музыка за 2013 и 2014 годы через торрент бесплатно. Скачивайте фильмы в хорошем качестве, игры для пк, xbox, playstation без регистрации. У нас вы найдете новые Зарубежные сериалы и Русские сериалы 2013, 2014, 2015 годов. Оставайтесь с нами, качайте любимые фильмы, игры, сериалы, книги и музыку.