img image001 image001 image001 image001 image001 image001 image001 image001 image001 image001 image001 image001 image001 image001 image001

Planets Sun Sun Sun
Статистика раздачи
Автор: PriZraK | Размер: 1.45 ГБ | Добавлен: 19 сен 2016
Раздают: 0    Качают: 0
Скачать торрент
Скачать торрент
Описание торрента

СообщениеДобавлено: 19 сен 2016 


Информация о фильме
Название: Вий
Год выхода: 1967
Жанр: ужасы, фэнтези, драма
Режиссер: Георгий Кропачев, Константин Ершов
В ролях: Леонид Куравлёв, Наталья Варлей, Алексей Глазырин, Николай Кутузов, Вадим Захарченко, Пётр Вескляров, Владимир Сальников, Дмитрий Капка, Степан Шкурат, Георгий Сочевко, Николай Яковченко, Николай Панасьев, Маргарита Криницына, Борислав Брондуков, Николай Степанов, Александр Лебедев, Михаил Крамар, Дмитрий Орловский, Анна Павлова, Борис Веселов, Любовь Калюжная, Виктор Колпаков, Александра Денисова
О фильме:
Студент-философ Хома Брут должен провести несколько ночей у гроба умершей панночки в старой церквушке в далекой деревне. Сможет ли он побороть свой страх, или ему придется столкнуться с нечистой силой?..

Страна: СССР
Студия: Мосфильм
Продолжительность: 01:16:51
Перевод: Не требуется (русский)
Файл
Кодек: x264
Качество: BDRip-AVC (VIY_BD_JPN_BLUEBIRD)
Видео: MPEG-4 AVC, 2265 Кбит/с, 768x675, 23.976 кадр/с
Звук: AC3, 2 ch, 448 Кбит/с
Общее
Уникальный идентификатор : 239352887092893920428846943454465201650 (0xB411B072DEABAA218824D92B4B6D95F2)
Полное имя : Viy.1967.BDRip-AVC.mkv
Формат : Matroska
Версия формата : Version 4 / Version 2
Размер файла : 1,45 Гбайт
Продолжительность : 1 ч. 16 м.
Общий поток : 2715 Кбит/сек
Название фильма : Viy
Режиссёр : Konstantin Ershov, Georgiy Kropachyov
Дата кодирования : UTC 2016-09-05 04:43:00
Программа кодирования : mkvmerge v9.2.0 ('Photograph') 32bit
Библиотека кодирования : libebml v1.3.3 + libmatroska v1.4.4
Обложка : Yes
Attachments : cover.jpg
Release : Koenig
Видео
Идентификатор : 1
Формат : AVC
Формат/Информация : Advanced Video Codec
Профиль формата : High@L4.1
Параметр CABAC формата : Да
Параметр ReFrames формата : 10 кадров
Идентификатор кодека : V_MPEG4/ISO/AVC
Продолжительность : 1 ч. 16 м.
Битрейт : 2265 Кбит/сек
Ширина : 768 пикселей
Высота : 576 пикселей
Соотношение сторон : 4:3
Режим частоты кадров : Постоянный
Частота кадров : 23,976 (24000/1001) кадра/сек
Цветовое пространство : YUV
Субдискретизация насыщенности : 4:2:0
Битовая глубина : 8 бит
Тип развёртки : Прогрессивная
Бит/(Пиксели*Кадры) : 0.214
Размер потока : 1,21 Гбайт (83%)
Библиотека кодирования : x264 core 148 r2692 64f4e24
Настройки программы : cabac=1 / ref=10 / deblock=1:-3:-3 / analyse=0x3:0x133 / me=umh / subme=10 / psy=1 / psy_rd=1.00:0.05 / mixed_ref=1 / me_range=32 / chroma_me=1 / trellis=2 / 8x8dct=1 / cqm=0 / deadzone=21,11 / fast_pskip=0 / chroma_qp_offset=-3 / threads=3 / lookahead_threads=1 / sliced_threads=0 / nr=0 / decimate=1 / interlaced=0 / bluray_compat=0 / constrained_intra=0 / bframes=12 / b_pyramid=2 / b_adapt=2 / b_bias=0 / direct=3 / weightb=1 / open_gop=0 / weightp=2 / keyint=240 / keyint_min=23 / scenecut=40 / intra_refresh=0 / rc_lookahead=40 / rc=2pass / mbtree=1 / bitrate=2265 / ratetol=1.0 / qcomp=0.60 / qpmin=10 / qpmax=51 / qpstep=4 / cplxblur=20.0 / qblur=0.5 / vbv_maxrate=50000 / vbv_bufsize=62500 / nal_hrd=none / filler=0 / ip_ratio=1.40 / aq=1:1.00
Default : Да
Forced : Нет
Аудио
Идентификатор : 2
Формат : AC-3
Формат/Информация : Audio Coding 3
Расширение режима : CM (complete main)
Параметр Endianness формата : Big
Идентификатор кодека : A_AC3
Продолжительность : 1 ч. 16 м.
Вид битрейта : Постоянный
Битрейт : 448 Кбит/сек
Каналы : 2 канала
Расположение каналов : Front: L R
Частота : 48,0 КГц
Частота кадров : 31,250 кадров/сек (1536 spf)
Метод сжатия : С потерями
Размер потока : 245 Мбайт (17%)
Язык : Russian
Default : Да
Forced : Нет
Меню
00:00:00.000 : en:
00:10:03.978 : en:
00:21:28.996 : en:
00:26:57.365 : en:
00:37:36.254 : en:
00:45:53.083 : en:
00:55:23.403 : en:
01:05:14.827 : en:
01:16:49.563 : en:



   Похожие торренты   Торрент   Размер 
В этой теме нет новых непрочитанных сообщений. Вий (1967) BDRip 720p | JPN Transfer

183 | 64

4.86 ГБ

В этой теме нет новых непрочитанных сообщений. Снежная королева (1967) BDRip | GER Transfer

22 | 0

1.45 ГБ

В этой теме нет новых непрочитанных сообщений. Красный берег / Beach Red (1967) BDRip от Koenig | P2

58 | 12

1.45 ГБ

В этой теме нет новых непрочитанных сообщений. Царь Эдип / Edipo re (1967) BDRip от Koenig | MVO

4 | 0

2.18 ГБ

В этой теме нет новых непрочитанных сообщений. Снежная королева (1967) BDRip 1080p | GER Transfer

34 | 17

5.62 ГБ

В этой теме нет новых непрочитанных сообщений. Снежная королева (1967) BDRip 720p | Ger Transfer

6 | 1

3.72 ГБ

В этой теме нет новых непрочитанных сообщений. Большие каникулы / Les Grandes vacances (1967) BDRip от Koenig | P, P2

1 | 0

1.45 ГБ




Вы не можете начинать темы
Вы не можете отвечать на сообщения
Вы не можете редактировать свои сообщения
Вы не можете удалять свои сообщения
Вы не можете добавлять вложения

Перейти:  
Для Мосгорсуда, Роскомнадзора и рекламодателей: mosgorsud-torrent[собачка]yandex.ru
 Вход
ppkBB3cker v.2 © 2008-2014 @ PPK
[ Time : 0.039s | 15 Queries | GZIP : Off ]

cron