img image001 image001 image001 image001 image001 image001 image001 image001 image001 image001 image001 image001 image001 image001 image001

Planets Sun Sun Sun
Статистика раздачи
Автор: PriZraK | Размер: 1.66 ГБ | Добавлен: 19 сен 2016
Раздают: 15    Качают: 2
Скачать торрент
Скачать торрент
Описание торрента

СообщениеДобавлено: 19 сен 2016 


Информация о фильме
Название: Невероятное перемещение
Год выхода: 2014
Жанр: детский, приключения
Режиссер: Александр Анисимов
В ролях: Сева Малицкий, Катя Острога, Александр Овчинников, Дмитрий Есеневич, Геннадий Фомин, Наталья Горбатенко, Сергей Савенков, Артур Шуляк, Диана Чикранова, Маша Козловская, Анатолий Голуб, Анна Южакова, Светлана Суховей, Александр Жданович, Инна Савенкова, Алеся Лесникова, Наталья Онищенко, Виктор Васильев, Александр Демьянков
О фильме:
Школьник Ваня Фёдоров убегает с уроков, чтобы, воспользовавшись отсутствием родителей, протестировать изобретенную им самим универсальную компьютерную программу для приготовления уроков. Но из-за сбоя в программе Ваня вместо ожидаемого реферата получает…трёх гостей из прошлого, одним из которых является не кто-нибудь, а Филипп Ауреол Теофраст Бомбаст фон Гогенхайм, в будущем известный, как доктор медицины Парацельс. Ваня и его сестра Лиза должны во что бы то ни стало успеть вернуть Парацельса в прошлое, чтобы он мог совершить свои открытия и остановить вспышку чумы…
Доп. информация:
Сценарист: Маргарита Шаграй
Оператор: Дмитрий Рудь
Композитор: Олег Гембицкий
Художник: Владимир Царикович
«Невероятное перемещение» снимали в Минске, а также в пригородной деревне Прилуки на старом пивоваренном заводе. В фильме обыграны самые знаковые скульптуры белорусского мастера Владимира Жбанова – «Почтальон» (возле кинотеатра «Октябрь»), «Незнакомка» (Михайловский сквер), «Карета губернатора» (пл. Свободы). Так режиссер Александр Анисимов отдал дань памяти своему другу, который ушел из жизни в 2012 году.
С творчеством белорусского мастера скульптуры Владимиром Жбановым можно познакомится в документальном фильме:
Метафора - Владимир Жбанов (2006)
http://www.rutor.is/torrent/522015
Запись потока *.ts с наземного цифрового телеканала "Беларусь 3".
Во время показа финальных титров происходит показ анонса следующей передачи - видно на последнем скрине.

Благодарность: за помощь с недостающим материалом Bartimeyse. Большое спасибо!
Страна: Республика Беларусь
Студия: Беларусьфильм
Продолжительность: 01:29:22
Перевод: Не требует
Файл
Кодек: AVC (H264)
Качество: DVB
Видео: MPEG4 Video (H264) 720(785)x576 (49:36) 25fps, 2 268 Kbps
Звук: MPEG Audio 48000Hz stereo 256kbps
Семпл
Код:
General
ID                             : 1 (0x1)
Complete name                  : D:Новая  земля 2Художественные фильмыНевероятное перемещение (2014)Невероятное перемещение (2014).ts
Format                         : MPEG-TS
File size                      : 1.66 GiB
Duration                       : 1h 29mn
Overall bit rate mode          : Variable
Overall bit rate               : 2 658 Kbps
Video
ID                             : 513 (0x201)
Menu ID                        : 1 (0x1)
Format                         : AVC
Format/Info                    : Advanced Video Codec
Format profile                 : Main@L3.0
Format settings, CABAC         : Yes
Format settings, ReFrames      : 4 frames
Format settings, GOP           : M=4, N=24
Codec ID                       : 27
Duration                       : 1h 29mn
Bit rate                       : 2 268 Kbps
Width                          : 720 pixels
Height                         : 576 pixels
Display aspect ratio           : 4:3
Frame rate                     : 25.000 fps
Standard                       : PAL
Color space                    : YUV
Chroma subsampling             : 4:2:0
Bit depth                      : 8 bits
Scan type                      : MBAFF
Scan order                     : Top Field First
Bits/(Pixel*Frame)             : 0.219
Stream size                    : 1.42 GiB (85%)
Color primaries                : BT.601 PAL
Transfer characteristics       : BT.470 System B, BT.470 System G
Matrix coefficients            : BT.601
Color range                    : Limited
Audio
ID                             : 514 (0x202)
Menu ID                        : 1 (0x1)
Format                         : MPEG Audio
Format version                 : Version 1
Format profile                 : Layer 2
Codec ID                       : 3
Duration                       : 1h 29mn
Bit rate mode                  : Constant
Bit rate                       : 256 Kbps
Channel(s)                     : 2 channels
Sampling rate                  : 48.0 KHz
Compression mode               : Lossy
Stream size                    : 164 MiB (10%)
Language                       : English







   Похожие торренты   Торрент   Размер 
В этой теме нет новых непрочитанных сообщений. Невероятное перемещение (2014) SATRip от torrentfilm

29 | 1

750.12 МБ

В этой теме нет новых непрочитанных сообщений. Невероятное перемещение (2014) SATRip от torrentfilm

168 | 7

1.46 ГБ

В этой теме нет новых непрочитанных сообщений. Сумрачное явление 3: Невероятное шоу. Коллекционное издание (2015) PC

301 | 12

935.22 МБ

В этой теме нет новых непрочитанных сообщений. Невероятное путешествие / The Incredible Journey (1963) WEB-DL 720p | P

127 | 22

2.39 ГБ

В этой теме нет новых непрочитанных сообщений. Чистосердечное признание. Невероятное очевидно [эфир от 13.03] (2011) SATRip от RiperAM

0 | 1

456.55 МБ

В этой теме нет новых непрочитанных сообщений. Невероятное пари, или Истинное происшествие, благополучно завершившееся 100 лет назад (1984) DVDRip

20 | 11

1.36 ГБ

В этой теме нет новых непрочитанных сообщений. Невероятное путешествие мистера Спивета / The Young and Prodigious T.S. Spivet (2013) HDRip от -=HD-NET=- | КПК

9 | 3

394.93 МБ




Вы не можете начинать темы
Вы не можете отвечать на сообщения
Вы не можете редактировать свои сообщения
Вы не можете удалять свои сообщения
Вы не можете добавлять вложения

Перейти:  
Для Мосгорсуда, Роскомнадзора и рекламодателей: mosgorsud-torrent[собачка]yandex.ru
 Вход
ppkBB3cker v.2 © 2008-2014 @ PPK
[ Time : 0.045s | 14 Queries | GZIP : Off ]

Торрент трекер RUTOR.IN, Не можете зайти на rutor.org? Какой новый адрес рутор? Какое зеркало рутор? Не работает rutor.org и зеркала? Тогда наш торрент специально для вас. Rutor.in неофициальное зеркало rutor. В случае если у Вас заблокирован rutor или вдруг Вы не можете на него зайти, то Вы без труда сможете скачать бесплатно и без рекламы последние новинки кино, игр, сериалов и прочего у нас, на Rutor.in. Не нужно использовать прокси, чтобы зайти на рутор, достаточно воспользоваться нашим ресурсом. Все новые фильмы, игры, сериалы, книги и музыка за 2013 и 2014 годы через торрент бесплатно. Скачивайте фильмы в хорошем качестве, игры для пк, xbox, playstation без регистрации. У нас вы найдете новые Зарубежные сериалы и Русские сериалы 2013, 2014, 2015 годов. Оставайтесь с нами, качайте любимые фильмы, игры, сериалы, книги и музыку.