img image001 image001 image001 image001 image001 image001 image001 image001 image001 image001 image001 image001 image001 image001 image001

Planets Sun Sun Sun
Статистика раздачи
Автор: PriZraK | Размер: 369.55 МБ | Добавлен: 19 сен 2016
Раздают: 5    Качают: 3
Скачать торрент
Скачать торрент
Описание торрента

СообщениеДобавлено: 19 сен 2016 

Страна: СССР
Производство: ВГИК
Жанр: короткометражка, драма, экранизация
Год выпуска: 1956
Продолжительность: 00:20:38
Перевод: Не требуется
Cубтитры: нет
Оригинальная аудиодорожка: русский
Режиссер: Марика Бейку, Александр Гордон, Андрей Тарковский
В ролях:
Юлий Файт, Александр Гордон, Валентин Виноградов, Вадим Новиков, Юрий Дубровин (II), Андрей Тарковский, Василий Шукшин...
Полный список актёров
Описание:
Первый студенческий фильм Андрея Тарковского, снятый им во время учебы во ВГИКе (режиссерская мастерская М.И.Ромма). Большинство критиков признают фильм лучшим из когда-либо снятых студенческих короткометражных фильмов.
Фильм снят по рассказу Э.Хемингуэя и состоит из трех эпизодов.





Источник: BDRemux 1080p
Качество видео: BDRip
Формат видео: AVI
Видео: 720x544 (4:3), 25 fps, XviD ~ 2302 kbps avg, 0.245 bit/pixel
Аудио: 48 kHz, Dolby Digital AC3 2.0, 192 kbps
Раздача от:
Общее
Полное имя : Ubiycy.1956.BDRip_[New-team]_by_AVP_Studio.avi
Формат : AVI
Формат/Информация : Audio Video Interleave
Размер файла : 370 Мбайт
Продолжительность : 20 м.
Общий поток : 2503 Кбит/сек
Программа кодирования : VirtualDubMod 1.5.10.3 | www.virtualdub-fr.org || (build 2550/release)
Библиотека кодирования : VirtualDubMod build 2550/release
Видео
Идентификатор : 0
Формат : MPEG-4 Visual
Профиль формата : Advanced Simple@L5
Параметр BVOP формата : 1
Параметр QPel формата : Нет
Параметр GMC формата : Без точки перехода
Параметр матрицы формата : Выборочная
Идентификатор кодека : XVID
Идентификатор кодека/Подсказка : XviD
Продолжительность : 20 м.
Битрейт : 2302 Кбит/сек
Ширина : 720 пикселей
Высота : 544 пикселя
Соотношение сторон : 4:3
Частота кадров : 23,976 (23976/1000) кадра/сек
Цветовое пространство : YUV
Субдискретизация насыщенности : 4:2:0
Битовая глубина : 8 бит
Тип развёртки : Прогрессивная
Метод сжатия : С потерями
Бит/(Пиксели*Кадры) : 0.245
Размер потока : 340 Мбайт (92%)
Библиотека кодирования : XviD 1.2.1 (UTC 2008-12-04)
Аудио
Идентификатор : 1
Формат : AC-3
Формат/Информация : Audio Coding 3
Расширение режима : CM (complete main)
Параметр Endianness формата : Big
Идентификатор кодека : 2000
Продолжительность : 20 м.
Вид битрейта : Постоянный
Битрейт : 192 Кбит/сек
Каналы : 2 канала
Расположение каналов : Front: L R
Частота : 48,0 КГц
Частота кадров : 31,250 кадров/сек (1536 spf)
Метод сжатия : С потерями
Размер потока : 28,3 Мбайт (8%)
Выравнивание : Разделение по промежуткам
Продолжительность промежутка : 42 мс. (1,00 видеокадр)
Время предзагрузки промежутка : 500 мс





   Похожие торренты   Торрент   Размер 
В этой теме нет новых непрочитанных сообщений. Убийцы (1956) BDRip-AVC от New-Team

22 | 5

372.56 МБ

В этой теме нет новых непрочитанных сообщений. Убийцы (1956) DVDRip

18 | 4

338.1 МБ

В этой теме нет новых непрочитанных сообщений. Карнавальная ночь (1956) BDRip от New-Team

130 | 19

1.45 ГБ

В этой теме нет новых непрочитанных сообщений. Двенадцать месяцев (1956) BDRip-AVC от New-Team

31 | 2

744.47 МБ

В этой теме нет новых непрочитанных сообщений. Карнавальная ночь (1956) BDRip-AVC от New-Team

16 | 3

1.09 ГБ

В этой теме нет новых непрочитанных сообщений. Двенадцать месяцев (1956) BDRip от New-Team

68 | 1

745.12 МБ

В этой теме нет новых непрочитанных сообщений. Карнавальная ночь (1956) BDRip от New-Team

29 | 13

743.85 МБ




Вы не можете начинать темы
Вы не можете отвечать на сообщения
Вы не можете редактировать свои сообщения
Вы не можете удалять свои сообщения
Вы не можете добавлять вложения

Перейти:  
Для Мосгорсуда, Роскомнадзора и рекламодателей: mosgorsud-torrent[собачка]yandex.ru
 Вход
ppkBB3cker v.2 © 2008-2014 @ PPK
[ Time : 0.033s | 15 Queries | GZIP : Off ]

Торрент трекер RUTOR.IN, Не можете зайти на rutor.org? Какой новый адрес рутор? Какое зеркало рутор? Не работает rutor.org и зеркала? Тогда наш торрент специально для вас. Rutor.in неофициальное зеркало rutor. В случае если у Вас заблокирован rutor или вдруг Вы не можете на него зайти, то Вы без труда сможете скачать бесплатно и без рекламы последние новинки кино, игр, сериалов и прочего у нас, на Rutor.in. Не нужно использовать прокси, чтобы зайти на рутор, достаточно воспользоваться нашим ресурсом. Все новые фильмы, игры, сериалы, книги и музыка за 2013 и 2014 годы через торрент бесплатно. Скачивайте фильмы в хорошем качестве, игры для пк, xbox, playstation без регистрации. У нас вы найдете новые Зарубежные сериалы и Русские сериалы 2013, 2014, 2015 годов. Оставайтесь с нами, качайте любимые фильмы, игры, сериалы, книги и музыку.