img image001 image001 image001 image001 image001 image001 image001 image001 image001 image001 image001 image001 image001 image001 image001

Planets Sun Sun Sun
Статистика раздачи
Автор: PriZraK | Размер: 372.56 МБ | Добавлен: 19 сен 2016
Раздают: 22    Качают: 5
Скачать торрент
Скачать торрент
Описание торрента

СообщениеДобавлено: 19 сен 2016 

Страна: СССР
Производство: ВГИК
Жанр: короткометражка, драма, экранизация
Год выпуска: 1956
Продолжительность: 00:20:38
Перевод: Не требуется
Cубтитры: нет
Оригинальная аудиодорожка: русский
Режиссер: Марика Бейку, Александр Гордон, Андрей Тарковский
В ролях:
Юлий Файт, Александр Гордон, Валентин Виноградов, Вадим Новиков, Юрий Дубровин (II), Андрей Тарковский, Василий Шукшин...
Полный список актёров
Описание:
Первый студенческий фильм Андрея Тарковского, снятый им во время учебы во ВГИКе (режиссерская мастерская М.И.Ромма). Большинство критиков признают фильм лучшим из когда-либо снятых студенческих короткометражных фильмов.
Фильм снят по рассказу Э.Хемингуэя и состоит из трех эпизодов.





Источник: BDRemux 1080p
Качество видео: BDRip-AVC
Формат видео: MKV
Видео: 768x576 (4:3), 25 fps, H264 ~ 2329 kbps avg, 0.220 bit/pixel
Аудио: 48 kHz, Dolby Digital AC3 2.0, 192 kbps
Раздача от:
Общее
Полное имя : Ubiycy.1956.BDRip-AVC_[New-team]_by_AVP_Studio.mkv
Формат : Matroska
Версия формата : Version 2
Размер файла : 373 Мбайт
Продолжительность : 20 м.
Общий поток : 2523 Кбит/сек
Дата кодирования : UTC 2016-09-04 09:50:07
Программа кодирования : mkvmerge v6.1.0 ('Old Devil') built on Mar 4 2013 09:10:42
Библиотека кодирования : libebml v1.3.0 + libmatroska v1.4.0
Видео
Идентификатор : 1
Формат : AVC
Формат/Информация : Advanced Video Codec
Профиль формата : High@L4.1
Параметр CABAC формата : Да
Параметр ReFrames формата : 10 кадров
Идентификатор кодека : V_MPEG4/ISO/AVC
Продолжительность : 20 м.
Битрейт : 2329 Кбит/сек
Ширина : 768 пикселей
Высота : 576 пикселей
Соотношение сторон : 4:3
Режим частоты кадров : Постоянный
Частота кадров : 23,976 (24000/1001) кадра/сек
Цветовое пространство : YUV
Субдискретизация насыщенности : 4:2:0
Битовая глубина : 8 бит
Тип развёртки : Прогрессивная
Бит/(Пиксели*Кадры) : 0.220
Размер потока : 337 Мбайт (90%)
Библиотека кодирования : x264 core 148 r2597 e86f3a1
Настройки программы : cabac=1 / ref=10 / deblock=1:-3:-2 / analyse=0x3:0x113 / me=umh / subme=10 / psy=1 / psy_rd=1.00:0.00 / mixed_ref=1 / me_range=32 / chroma_me=1 / trellis=2 / 8x8dct=1 / cqm=0 / deadzone=21,11 / fast_pskip=1 / chroma_qp_offset=-2 / threads=6 / lookahead_threads=1 / sliced_threads=0 / nr=0 / decimate=0 / interlaced=0 / bluray_compat=0 / constrained_intra=0 / bframes=8 / b_pyramid=2 / b_adapt=2 / b_bias=0 / direct=3 / weightb=1 / open_gop=0 / weightp=2 / keyint=240 / keyint_min=24 / scenecut=40 / intra_refresh=0 / rc_lookahead=40 / rc=2pass / mbtree=1 / bitrate=2329 / ratetol=1.0 / qcomp=0.60 / qpmin=0 / qpmax=69 / qpstep=4 / cplxblur=20.0 / qblur=0.5 / ip_ratio=1.40 / aq=1:1.00
Default : Да
Forced : Нет
Аудио
Идентификатор : 2
Формат : AC-3
Формат/Информация : Audio Coding 3
Расширение режима : CM (complete main)
Параметр Endianness формата : Big
Идентификатор кодека : A_AC3
Продолжительность : 20 м.
Вид битрейта : Постоянный
Битрейт : 192 Кбит/сек
Каналы : 2 канала
Расположение каналов : Front: L R
Частота : 48,0 КГц
Частота кадров : 31,250 кадров/сек (1536 spf)
Метод сжатия : С потерями
Размер потока : 28,3 Мбайт (8%)
Default : Да
Forced : Нет





   Похожие торренты   Торрент   Размер 
В этой теме нет новых непрочитанных сообщений. Убийцы (1956) BDRip от New-Team

5 | 3

369.55 МБ

В этой теме нет новых непрочитанных сообщений. Убийцы (1956) DVDRip

18 | 4

338.1 МБ

В этой теме нет новых непрочитанных сообщений. Карнавальная ночь (1956) BDRip от New-Team

29 | 13

743.85 МБ

В этой теме нет новых непрочитанных сообщений. Карнавальная ночь (1956) BDRip от New-Team

130 | 19

1.45 ГБ

В этой теме нет новых непрочитанных сообщений. Двенадцать месяцев (1956) BDRip от New-Team

19 | 1

745.12 МБ

В этой теме нет новых непрочитанных сообщений. Карнавальная ночь (1956) BDRip-AVC от New-Team

22 | 4

1.09 ГБ

В этой теме нет новых непрочитанных сообщений. Двенадцать месяцев (1956) BDRip-AVC от New-Team

31 | 2

744.47 МБ




Вы не можете начинать темы
Вы не можете отвечать на сообщения
Вы не можете редактировать свои сообщения
Вы не можете удалять свои сообщения
Вы не можете добавлять вложения

Перейти:  
Для Мосгорсуда, Роскомнадзора и рекламодателей: mosgorsud-torrent[собачка]yandex.ru
 Вход
ppkBB3cker v.2 © 2008-2014 @ PPK
[ Time : 0.664s | 16 Queries | GZIP : On ]

Торрент трекер RUTOR.IN, Не можете зайти на rutor.org? Какой новый адрес рутор? Какое зеркало рутор? Не работает rutor.org и зеркала? Тогда наш торрент специально для вас. Rutor.in неофициальное зеркало rutor. В случае если у Вас заблокирован rutor или вдруг Вы не можете на него зайти, то Вы без труда сможете скачать бесплатно и без рекламы последние новинки кино, игр, сериалов и прочего у нас, на Rutor.in. Не нужно использовать прокси, чтобы зайти на рутор, достаточно воспользоваться нашим ресурсом. Все новые фильмы, игры, сериалы, книги и музыка за 2013 и 2014 годы через торрент бесплатно. Скачивайте фильмы в хорошем качестве, игры для пк, xbox, playstation без регистрации. У нас вы найдете новые Зарубежные сериалы и Русские сериалы 2013, 2014, 2015 годов. Оставайтесь с нами, качайте любимые фильмы, игры, сериалы, книги и музыку.
cron