img image001 image001 image001 image001 image001 image001 image001 image001 image001 image001 image001 image001 image001 image001 image001

Planets Sun Sun Sun
Статистика раздачи
Автор: PriZraK | Размер: 745.18 МБ | Добавлен: 19 сен 2016
Раздают: 0    Качают: 0
Скачать торрент
Скачать торрент
Описание торрента

СообщениеДобавлено: 19 сен 2016 


Информация о фильме
Название: Зеленая карета
Год выхода: 2015
Жанр: Драма
Режиссер: Олег Асадулин
В ролях: Андрей Мерзликин, Виктория Исакова, Александр Мичков, Сергей Юшкевич, Владимир Меньшов, Анна Чиповская, Ян Цапник, Женя Малахова, Дмитрий Астрахан, Андрей Леонов
О фильме:
Вадим Раевский - известный режиссер, у которого есть все: деньги, красивые женщины, всеобщее признание. Его новый фильм даже выдвигают на «Оскар». Казалось, удача сама преследует его, но всегда ли она будет к нему благосклонна? Буквально в один миг его привычный мир рушится. Вадим пытается разобраться в случившемся, но чем дальше он заходит в своем расследовании, тем больше шокирующих подробностей ему открывается...

Страна: Россия
Студия: к/к "Революция-фильм", ООО "Реал-Дакота", к/к "Аристократ"
Продолжительность: 01:27:49
Перевод: Не требуется
Файл
Кодек: XviD
Качество: HDTVRip
Видео: 640x272 (2.35:1), 25 fps, XviD build 73 ~1048 kbps avg, 0.24 bit/pixel
Звук: 48 kHz, MPEG Layer 3, 2 ch, ~128.00 kbps avg
Субтитры: Отсутствуют
Семпл
General
Complete name : E:Изготовление рипа3eleHaia.Kareta.2015.HDTVRip.by shkiper.avi
Format : AVI
Format/Info : Audio Video Interleave
File size : 745 MiB
Duration : 1h 27mn
Overall bit rate : 1 186 Kbps
Writing application : VirtualDubMod 1.5.10.3 | www.virtualdub-fr.org || (build 2550/release)
Writing library : VirtualDubMod build 2550/release
Video
ID : 0
Format : MPEG-4 Visual
Format profile : Advanced Simple@L5
Format settings, BVOP : 1
Format settings, QPel : No
Format settings, GMC : No warppoints
Format settings, Matrix : Custom
Codec ID : XVID
Codec ID/Hint : XviD
Duration : 1h 27mn
Bit rate : 1 049 Kbps
Width : 640 pixels
Height : 272 pixels
Display aspect ratio : 2.35:1
Frame rate : 25.000 fps
Color space : YUV
Chroma subsampling : 4:2:0
Bit depth : 8 bits
Scan type : Progressive
Compression mode : Lossy
Bits/(Pixel*Frame) : 0.241
Stream size : 659 MiB (88%)
Writing library : XviD 73
Audio
ID : 1
Format : MPEG Audio
Format version : Version 1
Format profile : Layer 3
Codec ID : 55
Codec ID/Hint : MP3
Duration : 1h 27mn
Bit rate mode : Constant
Bit rate : 128 Kbps
Channel(s) : 2 channels
Sampling rate : 48.0 KHz
Compression mode : Lossy
Stream size : 80.4 MiB (11%)
Alignment : Aligned on interleaves
Interleave, duration : 40 ms (1.00 video frame)
Interleave, preload duration : 504 ms
Writing library : LAME3.99r
Encoding settings : -m s -V 4 -q 2 -lowpass 17 -b 128

Релиз от:



   Похожие торренты   Торрент   Размер 
В этой теме нет новых непрочитанных сообщений. Зеленая карета (2015) HDTVRip 720p от MediaClub

679 | 174

2.58 ГБ

В этой теме нет новых непрочитанных сообщений. Зеленая карета (2015) WEB-DL 720p | iTunes

1316 | 65

2.8 ГБ

В этой теме нет новых непрочитанных сообщений. Зеленая карета (2015) WEB-DLRip от Шкипер

2115 | 99

744.98 МБ

В этой теме нет новых непрочитанных сообщений. Зеленая карета (2015) WEB-DLRip-AVC | iTunes

2883 | 156

1.7 ГБ

В этой теме нет новых непрочитанных сообщений. Зеленая карета (2015) WEB-DL 1080p | iTunes

3086 | 137

3.09 ГБ

В этой теме нет новых непрочитанных сообщений. Зеленая карета (2015) WEB-DLRip | iTunes

18782 | 841

1.45 ГБ

В этой теме нет новых непрочитанных сообщений. Зеленая карета (2015) WEB-DLRip от Scarabey | iTunes

702 | 73

1.45 ГБ




Вы не можете начинать темы
Вы не можете отвечать на сообщения
Вы не можете редактировать свои сообщения
Вы не можете удалять свои сообщения
Вы не можете добавлять вложения

Перейти:  
Для Мосгорсуда, Роскомнадзора и рекламодателей: mosgorsud-torrent[собачка]yandex.ru
 Вход
ppkBB3cker v.2 © 2008-2014 @ PPK
[ Time : 0.513s | 14 Queries | GZIP : Off ]

Торрент трекер RUTOR.IN, Не можете зайти на rutor.org? Какой новый адрес рутор? Какое зеркало рутор? Не работает rutor.org и зеркала? Тогда наш торрент специально для вас. Rutor.in неофициальное зеркало rutor. В случае если у Вас заблокирован rutor или вдруг Вы не можете на него зайти, то Вы без труда сможете скачать бесплатно и без рекламы последние новинки кино, игр, сериалов и прочего у нас, на Rutor.in. Не нужно использовать прокси, чтобы зайти на рутор, достаточно воспользоваться нашим ресурсом. Все новые фильмы, игры, сериалы, книги и музыка за 2013 и 2014 годы через торрент бесплатно. Скачивайте фильмы в хорошем качестве, игры для пк, xbox, playstation без регистрации. У нас вы найдете новые Зарубежные сериалы и Русские сериалы 2013, 2014, 2015 годов. Оставайтесь с нами, качайте любимые фильмы, игры, сериалы, книги и музыку.