img image001 image001 image001 image001 image001 image001 image001 image001 image001 image001 image001 image001 image001 image001 image001

Planets Sun Sun Sun
Статистика раздачи
Автор: PriZraK | Размер: 1.74 ГБ | Добавлен: 19 сен 2016
Раздают: 5    Качают: 3
Скачать торрент
Скачать торрент
Описание торрента

СообщениеДобавлено: 19 сен 2016 


Информация о фильме
Название: Бесаме
Год выхода: 1989
Жанр: драма
Режиссер: Нино Ахвледиани
В ролях: Давид Габуния, Реваз Табукашвили, Нугзар Цомая, Кахи Кавсадзе, Георгий (Гоги) Харабадзе, Мурман Джинория, Гизо Жордания, Нино Коридзе, Бека Джгубурия, Жорж Девдариани, Важа Апрасидзе, Михаил Лобжанидзе, Гоча Георгадзе, Отар Багратиони, Берта Хапава, Ладо Габашвили, Гоги Миротадзе, Хосе Мария Рио де Беиестер, Каха Чхаидзе
О фильме:
Действие фильма происходит в Испании. Ректор Академии музыки во время путешествия встречает юного пастуха Бесаме, самозабвенно играющего на свирели. Ректор забирает пастушка с собой и устраивает в Академию. Увлеченный музыкант своей тупостью и рассеяностью раздражает учителей естественных наук — и вскоре оказывается в специальном пансионе для трудновоспитуемых, где воспитатель Рексач частенько поколачивает своих подопечных и заставляет их доносить друг на друга. Вскоре Бесаме приходит к выводу, что на насилие надо отвечать насилием. Постепенно мальчик становится мужественным парнем, все реже вспоминающем о своей свирели...
Доп. информация:
Сценарист: Нино Ахвледиани
Оператор: Ломер Ахвледиани
Композитор: Вахтанг Кахидзе
Художник: Важа Джалагания
Производство: Грузия-фильм, Мигель Санчес Инфанте (Испания)
Премьера: октябрь 1990 (Москва)
Постер из коллекции советских киноплакатов коллеги tokarevamarina.
Запись потока *.ts с наземного цифрового телеканала "Беларусь 3".
Во время показа финальных титров происходит показ анонса следующей передачи - видно на последнем скрине. А также во время показа появляется баннер оповещения о трансляции фильма.

Благодарность: за помощь с недостающим материалом Bartimeyse. Большое спасибо!
Страна: СССР, Испания
Студия: Грузия-фильм, Мигель Санчес Инфанте (Испания)
Продолжительность: 01:33:29
Перевод: профессиональный (двухголосый закадровый)
Файл
Кодек: AVC (H264)
Качество: DVB
Видео: MPEG4 Video (H264) 720(785)x576 (49:36) 25fps, 2 267 Kbps
Звук: MPEG Audio 48000Hz stereo 256kbps
Семпл
Код:
General
ID                             : 1 (0x1)
Complete name                  : D:Новая  земля 2Художественные фильмыБесаме (1989)Бесаме (1989).ts
Format                         : MPEG-TS
File size                      : 1.74 GiB
Duration                       : 1h 33mn
Overall bit rate mode          : Variable
Overall bit rate               : 2 657 Kbps
Video
ID                             : 513 (0x201)
Menu ID                        : 1 (0x1)
Format                         : AVC
Format/Info                    : Advanced Video Codec
Format profile                 : Main@L3.0
Format settings, CABAC         : Yes
Format settings, ReFrames      : 4 frames
Format settings, GOP           : M=4, N=24
Codec ID                       : 27
Duration                       : 1h 33mn
Bit rate                       : 2 267 Kbps
Width                          : 720 pixels
Height                         : 576 pixels
Display aspect ratio           : 4:3
Frame rate                     : 25.000 fps
Standard                       : PAL
Color space                    : YUV
Chroma subsampling             : 4:2:0
Bit depth                      : 8 bits
Scan type                      : MBAFF
Scan order                     : Top Field First
Bits/(Pixel*Frame)             : 0.219
Stream size                    : 1.48 GiB (85%)
Color primaries                : BT.601 PAL
Transfer characteristics       : BT.470 System B, BT.470 System G
Matrix coefficients            : BT.601
Color range                    : Limited
Audio
ID                             : 514 (0x202)
Menu ID                        : 1 (0x1)
Format                         : MPEG Audio
Format version                 : Version 1
Format profile                 : Layer 2
Codec ID                       : 3
Duration                       : 1h 33mn
Bit rate mode                  : Constant
Bit rate                       : 256 Kbps
Channel(s)                     : 2 channels
Sampling rate                  : 48.0 KHz
Compression mode               : Lossy
Stream size                    : 171 MiB (10%)
Language                       : English




   Похожие торренты   Торрент   Размер 
В этой теме нет новых непрочитанных сообщений. Приближение (1989) DVB от AND03AND

3 | 4

1.52 ГБ

В этой теме нет новых непрочитанных сообщений. Ветер забвения (1989) DVB от AND03AND

14 | 4

1.75 ГБ

В этой теме нет новых непрочитанных сообщений. Новогодний голубой огонёк 1988 (1989) DVB от AND03AND

43 | 282

5.2 ГБ

В этой теме нет новых непрочитанных сообщений. Человек, которого не было / Inimene, keda polnud (1989) DVB от AND03AND | P2

17 | 6

1.57 ГБ

В этой теме нет новых непрочитанных сообщений. Опера - Дикая охота короля Стаха / Дзікае паляванне караля Стаха [BLR] (1989) DVB от AND03AND

3 | 23

1.83 ГБ

В этой теме нет новых непрочитанных сообщений. Skid Row, Ozzy Osbourne, Gorky Park, Cinderella - Moscow Music Peace Festival 1989 (1989) MP3

25 | 18

209.63 МБ

В этой теме нет новых непрочитанных сообщений. Сальвадор Дали - 1989 (1989) MP3

0 | 2

91.84 МБ




Вы не можете начинать темы
Вы не можете отвечать на сообщения
Вы не можете редактировать свои сообщения
Вы не можете удалять свои сообщения
Вы не можете добавлять вложения

Перейти:  
Для Мосгорсуда, Роскомнадзора и рекламодателей: mosgorsud-torrent[собачка]yandex.ru
 Вход
ppkBB3cker v.2 © 2008-2014 @ PPK
[ Time : 0.050s | 14 Queries | GZIP : Off ]

Торрент трекер RUTOR.IN, Не можете зайти на rutor.org? Какой новый адрес рутор? Какое зеркало рутор? Не работает rutor.org и зеркала? Тогда наш торрент специально для вас. Rutor.in неофициальное зеркало rutor. В случае если у Вас заблокирован rutor или вдруг Вы не можете на него зайти, то Вы без труда сможете скачать бесплатно и без рекламы последние новинки кино, игр, сериалов и прочего у нас, на Rutor.in. Не нужно использовать прокси, чтобы зайти на рутор, достаточно воспользоваться нашим ресурсом. Все новые фильмы, игры, сериалы, книги и музыка за 2013 и 2014 годы через торрент бесплатно. Скачивайте фильмы в хорошем качестве, игры для пк, xbox, playstation без регистрации. У нас вы найдете новые Зарубежные сериалы и Русские сериалы 2013, 2014, 2015 годов. Оставайтесь с нами, качайте любимые фильмы, игры, сериалы, книги и музыку.