img image001 image001 image001 image001 image001 image001 image001 image001 image001 image001 image001 image001 image001 image001 image001

Planets Sun Sun Sun
Статистика раздачи
Автор: PriZraK | Размер: 1.65 ГБ | Добавлен: 19 сен 2016
Раздают: 6    Качают: 1
Скачать торрент
Скачать торрент
Описание торрента

СообщениеДобавлено: 19 сен 2016 


Информация о фильме
Название: Завтра будет поздно / Zajtra bude neskoro / Заўтра будзе позна
Год выхода: 1972
Жанр: военный
Режиссер: Мартин Тяпак, Александр Карпов
В ролях: Милан Княжко, Нонна Мордюкова, Евгения Ветлова, Фёдор Шмаков, Олдо Гловачек, Михал Дочоломанский, Иозеф Будский, Микулаш Хуба, Валентин Белохвостик, Игорь Комаров, Виктор Шрамченко, Вадим Ганшин, Юрай Сарваш, Иван Райниак, Антон Мрвечка, Бронислав Крижан, Павел Кормунин, Харий Швейц, Николай Мерзликин, Улдис Лиелдидж, Йозеф Майерчик, Йозеф Кронер, Ярослав Дюречек, Юрай Ковач, Майя Булгакова, И. Чанияк
О фильме:
Яну Налепки, Национальному герою Чехословакии, Герою Советского Союза, его товарищам, боевому братству белорусских партизан и словацких патриотов сражавшихся плечом к плечу против фашизма в годы Великой Отечественной Войны, посвящается.
1943 год. Капитану Яну Налепке, начальнику штаба словацкого полка, несущего охрану военных объектов в районе небольшого белорусского городка, удается установить связь с партизанами. Используя полученные сведения о предстоящих операциях немецких войск, партизаны громят крупные силы немцев. Яна предупреждают, что гестаповец Гарнер подозревает его в сотрудничестве с партизанами, и его жизнь в опасности...
Доп. информация:
Сценаристы: Анатолий Делендик, Милош Крно
Операторы: Сергей Петровский, Виктор Свобода
Композитор: Светозар Страчина
Художники: Евгений Ганкин, Антон Крайчович
Производство: Беларусьфильм, Колиба (Словакия)
Премьера: 8 декабря 1972 (Братислава), 19 января 1973 (Прага), 18 февраля 1974 (Москва)
Запись потока *.ts с наземного цифрового телеканала "Беларусь 3".
Во время показа появляется баннер оповещения о трансляции фильма. Видно на скрине.

Благодарность: за помощь с недостающим материалом Bartimeyse. Большое спасибо!
Страна: СССР , ЧССР
Студия: Беларусьфильм, Колиба (Словакия)
Продолжительность: 01:29:00
Перевод: не требует
Файл
Кодек: AVC (H264)
Качество: DVB
Видео: MPEG4 Video (H264) 720(785)x576 (49:36) 25fps, 2 267 Kbps
Звук: MPEG Audio 48000Hz stereo 256kbps
Семпл
Код:
General
ID                             : 1 (0x1)
Complete name                  : D:Новая  земля 2Художественные фильмыЗавтра будет поздно (1972)Завтра будет поздно (1972).ts
Format                         : MPEG-TS
File size                      : 1.65 GiB
Duration                       : 1h 29mn
Overall bit rate mode          : Variable
Overall bit rate               : 2 657 Kbps
Video
ID                             : 513 (0x201)
Menu ID                        : 1 (0x1)
Format                         : AVC
Format/Info                    : Advanced Video Codec
Format profile                 : Main@L3.0
Format settings, CABAC         : Yes
Format settings, ReFrames      : 4 frames
Format settings, GOP           : M=4, N=24
Codec ID                       : 27
Duration                       : 1h 29mn
Bit rate                       : 2 267 Kbps
Width                          : 720 pixels
Height                         : 576 pixels
Display aspect ratio           : 4:3
Frame rate                     : 25.000 fps
Standard                       : PAL
Color space                    : YUV
Chroma subsampling             : 4:2:0
Bit depth                      : 8 bits
Scan type                      : MBAFF
Scan order                     : Top Field First
Bits/(Pixel*Frame)             : 0.219
Stream size                    : 1.41 GiB (85%)
Color primaries                : BT.601 PAL
Transfer characteristics       : BT.470 System B, BT.470 System G
Matrix coefficients            : BT.601
Color range                    : Limited
Audio
ID                             : 514 (0x202)
Menu ID                        : 1 (0x1)
Format                         : MPEG Audio
Format version                 : Version 1
Format profile                 : Layer 2
Codec ID                       : 3
Duration                       : 1h 28mn
Bit rate mode                  : Constant
Bit rate                       : 256 Kbps
Channel(s)                     : 2 channels
Sampling rate                  : 48.0 KHz
Compression mode               : Lossy
Stream size                    : 163 MiB (10%)
Language                       : English





   Похожие торренты   Торрент   Размер 
В этой теме нет новых непрочитанных сообщений. Завтра будет поздно (1972) SATRip от Amelj

7 | 3

745.31 МБ

В этой теме нет новых непрочитанных сообщений. После ярмарки (1972) DVB от AND03AND

36 | 8

1.1 ГБ

В этой теме нет новых непрочитанных сообщений. Завтра Война / Завтра война. Фактор К (2006 - 2007) РС | Lossless Repack

379 | 6

3.14 ГБ

В этой теме нет новых непрочитанных сообщений. Пока еще не поздно [01-51] (2013) SATRip

7 | 4

23.14 ГБ

В этой теме нет новых непрочитанных сообщений. Пока еще не поздно [01-46] (2013) SATRip

1 | 11

20.9 ГБ

В этой теме нет новых непрочитанных сообщений. Еще не поздно. Леонид Млечин [15.05 - 29.06] (2012) SATRip

9 | 40

3.05 ГБ

В этой теме нет новых непрочитанных сообщений. Cлишком поздно / Too Late (2015) WEB-DLRip | L

16 | 0

1.37 ГБ




Вы не можете начинать темы
Вы не можете отвечать на сообщения
Вы не можете редактировать свои сообщения
Вы не можете удалять свои сообщения
Вы не можете добавлять вложения

Перейти:  
Для Мосгорсуда, Роскомнадзора и рекламодателей: mosgorsud-torrent[собачка]yandex.ru
 Вход
ppkBB3cker v.2 © 2008-2014 @ PPK
[ Time : 0.095s | 16 Queries | GZIP : Off ]

Торрент трекер RUTOR.IN, Не можете зайти на rutor.org? Какой новый адрес рутор? Какое зеркало рутор? Не работает rutor.org и зеркала? Тогда наш торрент специально для вас. Rutor.in неофициальное зеркало rutor. В случае если у Вас заблокирован rutor или вдруг Вы не можете на него зайти, то Вы без труда сможете скачать бесплатно и без рекламы последние новинки кино, игр, сериалов и прочего у нас, на Rutor.in. Не нужно использовать прокси, чтобы зайти на рутор, достаточно воспользоваться нашим ресурсом. Все новые фильмы, игры, сериалы, книги и музыка за 2013 и 2014 годы через торрент бесплатно. Скачивайте фильмы в хорошем качестве, игры для пк, xbox, playstation без регистрации. У нас вы найдете новые Зарубежные сериалы и Русские сериалы 2013, 2014, 2015 годов. Оставайтесь с нами, качайте любимые фильмы, игры, сериалы, книги и музыку.