img image001 image001 image001 image001 image001 image001 image001 image001 image001 image001 image001 image001 image001 image001 image001

Planets Sun Sun Sun
Статистика раздачи
Автор: PriZraK | Размер: 4.36 ГБ | Добавлен: 19 сен 2016
Раздают: 0    Качают: 0
Скачать торрент
Скачать торрент
Описание торрента

СообщениеДобавлено: 19 сен 2016 


Информация о фильме
Название: Пикап: Съём без правил
Год выхода: 2009
Жанр: мелодрама, комедия
Режиссер: Феликс Герчиков
В ролях:
Константин Крюков, Шамиль Хаматов, Вадим Утенков, Ксения Радченко, Катя Гордон, Татьяна Лютаева, Екатерина Семенова, Павел Сыроежкин, Эльмира Метревели, Алиса
Старовойтова
О фильме:
Они называют себя пикаперами. Их девиз — бери от жизни всё, пока молод, их оружие — внешность, их «жертвы» — девушки, места их охоты — улицы ночной Москвы. Трое молодых парней, студентов, состязаются за право быть лучшим в теории и практике соблазнения. Циники и манипуляторы, они вырабатывают правила и условия соревнования. По ходу «игры» растет азарт, растут и ставки — до тех пор, пока они не затевают спор, который навсегда изменит их жизни.

Страна: Россия
Студия: Красная стрела, Рекун-синема
Продолжительность: 01:16:35
Перевод: не требуется
Файл
Кодек: H.264
Качество: BDRip 720p
Видео: MPEG-4 / AVC, 1280x544 (2.35:1), 23.976 fps ~ 7710 Kbps
Звук: AC3, 48 KHz 6 ch ~ 448 Kb/s
Субтитры: отсутствуют
Общее
Уникальный идентификатор : 202116556887754035543765386221732680237 (0x980E3BA06D113F78AE96DEAB2D56D22D)
Полное имя : Q:TorFPickup.Siem.Bez.Pravil.720.BluRay.Rus.HDCLUB.mkv
Формат : Matroska
Версия формата : Version 2
Размер файла : 4,36 Гбайт
Продолжительность : 1 ч. 16 м.
Общий поток : 8158 Кбит/сек
Название фильма : Пикап: Съем без правил (2009) - Release for HDCLUB
Дата кодирования : UTC 2010-01-13 14:59:30
Программа кодирования : mkvmerge v2.9.8 ('C'est le bon') built on Aug 13 2009 12:49:06
Библиотека кодирования : libebml v0.7.7 + libmatroska v0.8.1
Видео
Идентификатор : 1
Формат : AVC
Формат/Информация : Advanced Video Codec
Профиль формата : High@L4.1
Параметр CABAC формата : Да
Параметр ReFrames формата : 9 кадров
Идентификатор кодека : V_MPEG4/ISO/AVC
Продолжительность : 1 ч. 16 м.
Битрейт : 7710 Кбит/сек
Ширина : 1280 пикселей
Высота : 544 пикселя
Соотношение сторон : 2,35:1
Частота кадров : 23,976 кадра/сек
Цветовое пространство : YUV
Субдискретизация насыщенности : 4:2:0
Битовая глубина : 8 бит
Тип развёртки : Прогрессивная
Бит/(Пиксели*Кадры) : 0.462
Размер потока : 4,04 Гбайт (93%)
Заголовок : Release for HDCLUB
Библиотека кодирования : x264 core 78 r1309M 4d77de8
Настройки программы : cabac=1 / ref=9 / deblock=1:-3:-3 / analyse=0x3:0x113 / me=umh / subme=9 / psy=1 / psy_rd=1.0:0.0 / mixed_ref=1 / me_range=32 / chroma_me=1 / trellis=2 / 8x8dct=1 / cqm=0 / deadzone=21,11 / chroma_qp_offset=-2 / threads=12 / nr=0 / decimate=0 / mbaff=0 / constrained_intra=0 / bframes=6 / b_pyramid=0 / b_adapt=2 / b_bias=0 / direct=3 / wpredb=1 / keyint=250 / keyint_min=25 / scenecut=40 / rc_lookahead=50 / rc=2pass / mbtree=1 / bitrate=7710 / ratetol=1.0 / qcomp=0.60 / qpmin=10 / qpmax=51 / qpstep=4 / cplxblur=20.0 / qblur=0.5 / ip_ratio=1.40 / aq=1:0.80
Язык : Russian
Default : Нет
Forced : Нет
Аудио
Идентификатор : 2
Формат : AC-3
Формат/Информация : Audio Coding 3
Расширение режима : CM (complete main)
Идентификатор кодека : A_AC3
Продолжительность : 1 ч. 16 м.
Вид битрейта : Постоянный
Битрейт : 448 Кбит/сек
Каналы : 6 каналов
Расположение каналов : Front: L C R, Side: L R, LFE
Частота : 48,0 КГц
Битовая глубина : 16 бит
Метод сжатия : С потерями
Размер потока : 245 Мбайт (5%)
Заголовок : AC3 5.1 @ 448 kbps
Язык : Russian
Default : Да
Forced : Нет


Релиз от:



   Похожие торренты   Торрент   Размер 
В этой теме нет новых непрочитанных сообщений. Пикап: Съём без правил (2009) BDRip от HQCLUB

10 | 5

1.09 ГБ

В этой теме нет новых непрочитанных сообщений. Пикап: Съём без правил (2009) BDRip-AVC от Rulya74

57 | 5

745.25 МБ

В этой теме нет новых непрочитанных сообщений. Пикап: Съём без правил (2009) BDRip от HQ-VIDEO

292 | 12

1.46 ГБ

В этой теме нет новых непрочитанных сообщений. Пикап: Съем без правил (2009) BDRip от HELLYWOOD

39 | 7

1.46 ГБ

В этой теме нет новых непрочитанных сообщений. OST - Пикап: Съём без правил (2009) MP3

0 | 2

84.23 МБ

В этой теме нет новых непрочитанных сообщений. Пикап: Съём без правил (2009) HDRip от MegaPeer

8 | 1

745.54 МБ

В этой теме нет новых непрочитанных сообщений. Я тебя съем / Je te mangerais (2009) DVDRip

1 | 1

693.44 МБ




Вы не можете начинать темы
Вы не можете отвечать на сообщения
Вы не можете редактировать свои сообщения
Вы не можете удалять свои сообщения
Вы не можете добавлять вложения

Перейти:  
Для Мосгорсуда, Роскомнадзора и рекламодателей: mosgorsud-torrent[собачка]yandex.ru
 Вход
ppkBB3cker v.2 © 2008-2014 @ PPK
[ Time : 0.035s | 14 Queries | GZIP : Off ]

Торрент трекер RUTOR.IN, Не можете зайти на rutor.org? Какой новый адрес рутор? Какое зеркало рутор? Не работает rutor.org и зеркала? Тогда наш торрент специально для вас. Rutor.in неофициальное зеркало rutor. В случае если у Вас заблокирован rutor или вдруг Вы не можете на него зайти, то Вы без труда сможете скачать бесплатно и без рекламы последние новинки кино, игр, сериалов и прочего у нас, на Rutor.in. Не нужно использовать прокси, чтобы зайти на рутор, достаточно воспользоваться нашим ресурсом. Все новые фильмы, игры, сериалы, книги и музыка за 2013 и 2014 годы через торрент бесплатно. Скачивайте фильмы в хорошем качестве, игры для пк, xbox, playstation без регистрации. У нас вы найдете новые Зарубежные сериалы и Русские сериалы 2013, 2014, 2015 годов. Оставайтесь с нами, качайте любимые фильмы, игры, сериалы, книги и музыку.