img image001 image001 image001 image001 image001 image001 image001 image001 image001 image001 image001 image001 image001 image001 image001

Planets Sun Sun Sun
Статистика раздачи
Автор: PriZraK | Размер: 1.09 ГБ | Добавлен: 19 сен 2016
Раздают: 4    Качают: 2
Скачать торрент
Скачать торрент
Описание торрента

СообщениеДобавлено: 19 сен 2016 

Страна: СССР
Производство: Азербайджанфильм
Жанр: мюзикл, мелодрама, комедия
Год выпуска: 1956
Продолжительность: 01:25:01
Перевод: Не требуется
Cубтитры: нет
Оригинальная аудиодорожка: русский
Режиссер: Гусейн Сеид-заде
В ролях:
Алиага Агаев, Ахмед Ахмедов (II), Ариф Мирзакулиев, Тамара Гёзалова, Агасадых Герайбейли, Барат Шекинская, Мовсун Санани, Лютфали Абдуллаев, Исмаил Эфендиев, Мустафа Марданов, Исмаил Османлы...
Полный список актёров
Описание:
Музыкальная комедия по мотивам одноименной оперетты Узеира Гаджибекова.
Действие происходит в Баку в 1910 году. Юноша и девушка горячо любят друг друга и мечтают соединить свои жизни. Но осуществить это намерение не так-то просто. Дело в том, что отец девушки хочет выдать ее за богатого старика, надеясь тем самым поправить свои пошатнувшиеся финансовые дела.
Нужно во что бы то ни стало сорвать планы отца. Но как это сделать? Старик упрям, никакие доводы на него но действуют.
Не намерен отказываться от своих притязаний и «жених». «У меня деньги, — рассуждает старый торгаш, — а что может быть сильнее денег?»
Но напрасно Мешеди Губад так уверен в силе своей туго набитой мошны. Настоящую любовь за деньги не купишь. И в этом он вскоре убеждается на собственном опыте.
Молодым людям приходится преодолеть немало препятствий. И, надо сказать, они умеют постоять за себя и вовсе не намерены отказываться от своего счастья...





Источник: DVB
Качество видео: SATRip
Формат видео: AVI
Видео: 704x528 (4:3), 25 fps, XviD ~ 1634 kbps avg, 0.176 bit/pixel
Аудио: 48 kHz, Dolby Digital AC3 2.0, 192 kbps
Раздача от:
Общее
Полное имя : Ne.ta,tak.yeta.1956.SATRip_[New-team]_by_AVP_Studio.avi
Формат : AVI
Формат/Информация : Audio Video Interleave
Размер файла : 1,09 Гбайт
Продолжительность : 1 ч. 25 м.
Общий поток : 1835 Кбит/сек
Программа кодирования : VirtualDubMod 1.5.10.3 | www.virtualdub-fr.org || (build 2550/release)
Библиотека кодирования : VirtualDubMod build 2550/release
Видео
Идентификатор : 0
Формат : MPEG-4 Visual
Профиль формата : Advanced Simple@L5
Параметр BVOP формата : 1
Параметр QPel формата : Нет
Параметр GMC формата : Без точки перехода
Параметр матрицы формата : Выборочная
Идентификатор кодека : XVID
Идентификатор кодека/Подсказка : XviD
Продолжительность : 1 ч. 25 м.
Битрейт : 1634 Кбит/сек
Ширина : 704 пикселя
Высота : 528 пикселей
Соотношение сторон : 4:3
Частота кадров : 25,000 кадров/сек
Цветовое пространство : YUV
Субдискретизация насыщенности : 4:2:0
Битовая глубина : 8 бит
Тип развёртки : Прогрессивная
Метод сжатия : С потерями
Бит/(Пиксели*Кадры) : 0.176
Размер потока : 994 Мбайт (89%)
Библиотека кодирования : XviD 1.2.1 (UTC 2008-12-04)
Аудио
Идентификатор : 1
Формат : AC-3
Формат/Информация : Audio Coding 3
Расширение режима : CM (complete main)
Параметр Endianness формата : Big
Идентификатор кодека : 2000
Продолжительность : 1 ч. 25 м.
Вид битрейта : Постоянный
Битрейт : 192 Кбит/сек
Каналы : 2 канала
Расположение каналов : Front: L R
Частота : 48,0 КГц
Частота кадров : 31,250 кадров/сек (1536 spf)
Метод сжатия : С потерями
Размер потока : 117 Мбайт (10%)
Выравнивание : Разделение по промежуткам
Продолжительность промежутка : 40 мс. (1,00 видеокадр)
Время предзагрузки промежутка : 500 мс





   Похожие торренты   Торрент   Размер 
В этой теме нет новых непрочитанных сообщений. Не та, так эта (1956) SATRip-AVC от New-Team

9 | 2

1.09 ГБ

В этой теме нет новых непрочитанных сообщений. Две жизни (1956) SATRip от New-Team

28 | 2

745.21 МБ

В этой теме нет новых непрочитанных сообщений. Искатели (1956) SATRip от New-Team

7 | 3

744.88 МБ

В этой теме нет новых непрочитанных сообщений. Искатели (1956) SATRip-AVC от New-Team

12 | 2

1.09 ГБ

В этой теме нет новых непрочитанных сообщений. Искатели (1956) SATRip от New-Team

6 | 3

1.09 ГБ

В этой теме нет новых непрочитанных сообщений. Две жизни (1956) SATRip-AVC от New-Team

20 | 1

744.85 МБ

В этой теме нет новых непрочитанных сообщений. Крылья (1956) SATRip-AVC от New-Team

18 | 6

1.09 ГБ




Вы не можете начинать темы
Вы не можете отвечать на сообщения
Вы не можете редактировать свои сообщения
Вы не можете удалять свои сообщения
Вы не можете добавлять вложения

Перейти:  
Для Мосгорсуда, Роскомнадзора и рекламодателей: mosgorsud-torrent[собачка]yandex.ru
 Вход
ppkBB3cker v.2 © 2008-2014 @ PPK
[ Time : 0.043s | 15 Queries | GZIP : Off ]

Торрент трекер RUTOR.IN, Не можете зайти на rutor.org? Какой новый адрес рутор? Какое зеркало рутор? Не работает rutor.org и зеркала? Тогда наш торрент специально для вас. Rutor.in неофициальное зеркало rutor. В случае если у Вас заблокирован rutor или вдруг Вы не можете на него зайти, то Вы без труда сможете скачать бесплатно и без рекламы последние новинки кино, игр, сериалов и прочего у нас, на Rutor.in. Не нужно использовать прокси, чтобы зайти на рутор, достаточно воспользоваться нашим ресурсом. Все новые фильмы, игры, сериалы, книги и музыка за 2013 и 2014 годы через торрент бесплатно. Скачивайте фильмы в хорошем качестве, игры для пк, xbox, playstation без регистрации. У нас вы найдете новые Зарубежные сериалы и Русские сериалы 2013, 2014, 2015 годов. Оставайтесь с нами, качайте любимые фильмы, игры, сериалы, книги и музыку.