img image001 image001 image001 image001 image001 image001 image001 image001 image001 image001 image001 image001 image001 image001 image001

Planets Sun Sun Sun
Статистика раздачи
Автор: PriZraK | Размер: 1.24 ГБ | Добавлен: 19 сен 2016
Раздают: 0    Качают: 0
Скачать торрент
Скачать торрент
Описание торрента

СообщениеДобавлено: 19 сен 2016 


Информация о фильме
Название: Будьте моим мужем
Год выхода: 1981
Жанр: драма, мелодрама, комедия
Режиссер: Алла Сурикова
В ролях: Елена Проклова, Андрей Миронов, Филипп Адамович, Нина Русланова, Наталья Крачковская, Владимир Басов ст., Антон Табаков, Баадур Цуладзе, Олег Анофриев, Николай Гринько, Георгий Штиль, Леонард Саркисов, Михаил Светин, Анна Варпаховская, Валентина Воилкова, Михаил Херхеулидзе, Туфа Фазылова, Семён Фарада, Абдулхайр Касымов, Ольга Анохина
О фильме:
Детский врач отправляется в отпуск на Юг, где его услуги в качестве... мужа понадобились молодой и очень красивой женщине. Дело в том, что одной с ребенком ей никто сдавать квартиру в курортном городе не хотел. Нравы тогда такие были. Вот ей и понадобился человек, который мог бы разыграть из себя ее мужа для поселения в частном секторе. Ну а как у них сложатся отношения и в других областях, зритель предпочтет узнать сам. Легкая музыкальная комедия с прекрасными актерами.

Страна: СССР
Студия: Мосфильм
Продолжительность: 01:22:08
Перевод: Не требуется
Файл
Качество: WEB-DLRip (AVC)
Видео: MPEG-4 AVC, 1711 Кбит/с, 794х576
Аудио: AC3, 6 ch, 448 Кбит/с
General
Unique ID : 192746096041604352446889396346998701810 (0x91018C3CD1B2FDB5AB78DBB8AF9B3EF2)
Complete name : E:NataliaRelizy09.2016Bydjte.moim.mugem.1981.AVC.ExKinoRay.mkv
Format : Matroska
Format version : Version 2
File size : 1.24 GiB
Duration : 1 h 22 min
Overall bit rate : 2 160 kb/s
Movie name : Будьте мои мужем 1981 from ExKinoRay
Encoded date : UTC 2016-09-07 01:21:47
Writing application : mkvmerge v7.6.0 ('Garden of Dreams') 32bit built on Feb 11 2015 00:18:47
Writing library : libebml v1.3.1 + libmatroska v1.4.2
Video
ID : 1
Format : AVC
Format/Info : Advanced Video Codec
Format profile : High@L4.1
Format settings, CABAC : Yes
Format settings, ReFrames : 10 frames
Codec ID : V_MPEG4/ISO/AVC
Duration : 1 h 22 min
Bit rate : 1 711 kb/s
Width : 794 pixels
Height : 576 pixels
Display aspect ratio : 1.378
Frame rate mode : Constant
Frame rate : 25.000 FPS
Color space : YUV
Chroma subsampling : 4:2:0
Bit depth : 8 bits
Scan type : Progressive
Bits/(Pixel*Frame) : 0.150
Stream size : 981 MiB (77%)
Title : Enigma
Writing library : x264 core 144 r2525 40bb568
Encoding settings : cabac=1 / ref=10 / deblock=1:-2:-2 / analyse=0x3:0x113 / me=umh / subme=10 / psy=1 / psy_rd=1.05:0.10 / mixed_ref=1 / me_range=32 / chroma_me=1 / trellis=2 / 8x8dct=1 / cqm=0 / deadzone=21,11 / fast_pskip=0 / chroma_qp_offset=-3 / threads=12 / lookahead_threads=2 / sliced_threads=0 / nr=0 / decimate=0 / interlaced=0 / bluray_compat=0 / constrained_intra=0 / bframes=9 / b_pyramid=2 / b_adapt=2 / b_bias=0 / direct=3 / weightb=1 / open_gop=0 / weightp=2 / keyint=250 / keyint_min=25 / scenecut=40 / intra_refresh=0 / rc=2pass / mbtree=0 / bitrate=1711 / ratetol=1.0 / qcomp=0.60 / qpmin=0 / qpmax=51 / qpstep=4 / cplxblur=20.0 / qblur=0.5 / ip_ratio=1.40 / pb_ratio=1.30 / aq=1:1.00
Language : English
Default : Yes
Forced : No
Color range : Limited
Color primaries : BT.709
Transfer characteristics : BT.709
Matrix coefficients : BT.709
Audio
ID : 2
Format : AC-3
Format/Info : Audio Coding 3
Mode extension : CM (complete main)
Format settings, Endianness : Big
Codec ID : A_AC3
Duration : 1 h 22 min
Bit rate mode : Constant
Bit rate : 448 kb/s
Channel(s) : 6 channels
Channel positions : Front: L C R, Side: L R, LFE
Sampling rate : 48.0 kHz
Frame rate : 31.250 FPS (1536 spf)
Compression mode : Lossy
Stream size : 263 MiB (21%)
Language : Russian
Default : Yes
Forced : No


Релиз от:
Автор релиза:



   Похожие торренты   Торрент   Размер 
В этой теме нет новых непрочитанных сообщений. Будьте моим мужем (1981) WEB-DLRip от Koenig

0 | 0

709.96 МБ

В этой теме нет новых непрочитанных сообщений. Будьте моим мужем (1981) HDTVRip от Kaztorrents

10 | 8

747.27 МБ

В этой теме нет новых непрочитанных сообщений. Будьте моим мужем (1981) HDTVRip 720р

16 | 0

2.54 ГБ

В этой теме нет новых непрочитанных сообщений. Будьте моим мужем (1981) DVDRip-AVC | Реставрация

14 | 4

1.08 ГБ

В этой теме нет новых непрочитанных сообщений. Будьте моим мужем (1981) DVDRip-AVC | Реставрация

188 | 16

1.43 ГБ

В этой теме нет новых непрочитанных сообщений. Будьте моим мужем (1981) DVDRip | Реставрация

289 | 18

1.56 ГБ

В этой теме нет новых непрочитанных сообщений. Будьте моим мужем (1981) DVDRip | Реставрация

329 | 10

743.61 МБ




Вы не можете начинать темы
Вы не можете отвечать на сообщения
Вы не можете редактировать свои сообщения
Вы не можете удалять свои сообщения
Вы не можете добавлять вложения

Перейти:  
Для Мосгорсуда, Роскомнадзора и рекламодателей: mosgorsud-torrent[собачка]yandex.ru
 Вход
ppkBB3cker v.2 © 2008-2014 @ PPK
[ Time : 0.125s | 14 Queries | GZIP : Off ]

Торрент трекер RUTOR.IN, Не можете зайти на rutor.org? Какой новый адрес рутор? Какое зеркало рутор? Не работает rutor.org и зеркала? Тогда наш торрент специально для вас. Rutor.in неофициальное зеркало rutor. В случае если у Вас заблокирован rutor или вдруг Вы не можете на него зайти, то Вы без труда сможете скачать бесплатно и без рекламы последние новинки кино, игр, сериалов и прочего у нас, на Rutor.in. Не нужно использовать прокси, чтобы зайти на рутор, достаточно воспользоваться нашим ресурсом. Все новые фильмы, игры, сериалы, книги и музыка за 2013 и 2014 годы через торрент бесплатно. Скачивайте фильмы в хорошем качестве, игры для пк, xbox, playstation без регистрации. У нас вы найдете новые Зарубежные сериалы и Русские сериалы 2013, 2014, 2015 годов. Оставайтесь с нами, качайте любимые фильмы, игры, сериалы, книги и музыку.