img image001 image001 image001 image001 image001 image001 image001 image001 image001 image001 image001 image001 image001 image001 image001

Planets Sun Sun Sun
Статистика раздачи
Автор: PriZraK | Размер: 1.2 ГБ | Добавлен: 19 сен 2016
Раздают: 23    Качают: 4
Скачать торрент
Скачать торрент
Описание торрента

СообщениеДобавлено: 19 сен 2016 


Информация о фильме
Название: Никто не заменит тебя
Год выхода: 1982
Жанр: мелодрама
Режиссер: Рубен Мурадян
В ролях: Игорь Костолевский, Алеша Шичко, Людмила Нильская, Борис Щербаков, Раиса Куркина, Людмила Аринина, Наталья Гурзо, Анатолий Иванов, Баграт Хачатрян, Вера Банных, Георгий Кондратьев, Олег Николаевский, Юрий Сорокин, Лев Перфилов
О фильме:
Алексей Голенищев — скрипач в оркестре цирка. Он очень любит своего маленького сына Игоря и мечтает, что тот станет известным музыкантом. Алексей отдает все свободное время занятиям музыкой с мальчиком. Но теща считает своего зятя неудачником и настраивает свою дочь против него. Супруги расстаются...
Доп. информация:
Сценарист: Генрих Рябкин
Оператор: Игорь Лукшин
Композитор: Александр Колкер
Художник: Владислав Расторгуев
Производство: Свердловская киностудия по заказу Гостелерадио СССР
Премьера: 7 мая 1983 (ТВ)
Запись потока *.ts с наземного цифрового телеканала "Беларусь 3".

Благодарность: за помощь с недостающим материалом Bartimeyse. Большое спасибо!
Страна: СССР
Студия: Свердловская киностудия
Продолжительность: 01:04:55
Файл
Кодек: AVC (H264)
Качество: DVB
Видео: MPEG4 Video (H264) 720(785)x576 (49:36) 25fps, 2 267 Kbps
Звук: MPEG Audio 48000Hz stereo 256kbps
Семпл
Код:
General
ID                             : 1 (0x1)
Complete name                  : D:Новая  земля 2Художественные фильмыНикто не заменит тебя (1982)Никто не заменит тебя (1982).ts
Format                         : MPEG-TS
File size                      : 1.20 GiB
Duration                       : 1h 4mn
Overall bit rate mode          : Variable
Overall bit rate               : 2 657 Kbps
Video
ID                             : 513 (0x201)
Menu ID                        : 1 (0x1)
Format                         : AVC
Format/Info                    : Advanced Video Codec
Format profile                 : Main@L3.0
Format settings, CABAC         : Yes
Format settings, ReFrames      : 4 frames
Format settings, GOP           : M=4, N=24
Codec ID                       : 27
Duration                       : 1h 4mn
Bit rate                       : 2 267 Kbps
Width                          : 720 pixels
Height                         : 576 pixels
Display aspect ratio           : 4:3
Frame rate                     : 25.000 fps
Standard                       : PAL
Color space                    : YUV
Chroma subsampling             : 4:2:0
Bit depth                      : 8 bits
Scan type                      : MBAFF
Scan order                     : Top Field First
Bits/(Pixel*Frame)             : 0.219
Stream size                    : 1.03 GiB (85%)
Color primaries                : BT.601 PAL
Transfer characteristics       : BT.470 System B, BT.470 System G
Matrix coefficients            : BT.601
Color range                    : Limited
Audio
ID                             : 514 (0x202)
Menu ID                        : 1 (0x1)
Format                         : MPEG Audio
Format version                 : Version 1
Format profile                 : Layer 2
Codec ID                       : 3
Duration                       : 1h 4mn
Bit rate mode                  : Constant
Bit rate                       : 256 Kbps
Channel(s)                     : 2 channels
Sampling rate                  : 48.0 KHz
Compression mode               : Lossy
Stream size                    : 119 MiB (10%)
Language                       : English





   Похожие торренты   Торрент   Размер 
В этой теме нет новых непрочитанных сообщений. Никто не заменит тебя (1982) SATRip

395 | 3

853.61 МБ

В этой теме нет новых непрочитанных сообщений. Новогодний голубой огонёк 1982 (1982) DVB от AND03AND

300 | 11

4.39 ГБ

В этой теме нет новых непрочитанных сообщений. Шурочка (1982) DVB от AND03AND

7 | 3

1.72 ГБ

В этой теме нет новых непрочитанных сообщений. Опера - В пущах полесья / У пушчах Палесся [BLR] (1982) DVB от AND03AND

3 | 2

1.95 ГБ

В этой теме нет новых непрочитанных сообщений. Максим Богданович - Я не печалюсь... [поэтическая элегия] / Максім Багдановіч (1982) SATRip от AND03AND

11 | 5

419.79 МБ

В этой теме нет новых непрочитанных сообщений. Хоккей. Чемпионат мира 1982 год. СССР - Канада (1982) TVRip

79 | 17

881.42 МБ

В этой теме нет новых непрочитанных сообщений. Various Artists - James Bond Greatest Hits 1982 - 20 Original Tracks [Vinyl-Rip 24-bit] (1982) WAV

1 | 0

1.77 ГБ




Вы не можете начинать темы
Вы не можете отвечать на сообщения
Вы не можете редактировать свои сообщения
Вы не можете удалять свои сообщения
Вы не можете добавлять вложения

Перейти:  
Для Мосгорсуда, Роскомнадзора и рекламодателей: mosgorsud-torrent[собачка]yandex.ru
 Вход
ppkBB3cker v.2 © 2008-2014 @ PPK
[ Time : 0.050s | 15 Queries | GZIP : Off ]

Торрент трекер RUTOR.IN, Не можете зайти на rutor.org? Какой новый адрес рутор? Какое зеркало рутор? Не работает rutor.org и зеркала? Тогда наш торрент специально для вас. Rutor.in неофициальное зеркало rutor. В случае если у Вас заблокирован rutor или вдруг Вы не можете на него зайти, то Вы без труда сможете скачать бесплатно и без рекламы последние новинки кино, игр, сериалов и прочего у нас, на Rutor.in. Не нужно использовать прокси, чтобы зайти на рутор, достаточно воспользоваться нашим ресурсом. Все новые фильмы, игры, сериалы, книги и музыка за 2013 и 2014 годы через торрент бесплатно. Скачивайте фильмы в хорошем качестве, игры для пк, xbox, playstation без регистрации. У нас вы найдете новые Зарубежные сериалы и Русские сериалы 2013, 2014, 2015 годов. Оставайтесь с нами, качайте любимые фильмы, игры, сериалы, книги и музыку.