img image001 image001 image001 image001 image001 image001 image001 image001 image001 image001 image001 image001 image001 image001 image001

Planets Sun Sun Sun
Статистика раздачи
Автор: PriZraK | Размер: 2.35 ГБ | Добавлен: 19 сен 2016
Раздают: 6    Качают: 0
Скачать торрент
Скачать торрент
Описание торрента

СообщениеДобавлено: 19 сен 2016 


Информация о фильме
Название: Дикая охота короля Стаха (2 серии)
Год выхода: 1979
Жанр: детектив, мистика, экранизация
Режиссер: Валерий Рубинчик
В ролях: Борис Плотников, Елена Димитрова, Альберт Филозов, Роман Филиппов, Борис Хмельницкий, Валентина Шендрикова, Александр Харитонов, Игорь Класс, Владимир Фёдоров, Мария Капнист, Виктор Ильичёв, Юрий Дубровин, Борис Романов
О фильме:
По мотивам одноименной повести белорусского писателя Владимира Короткевича.
Действие картины разворачивается в белорусском Полесье в 1900 году. Молодой ученый-этнограф Андрей Белорецкий приехал сюда, чтобы изучать народные предания и поселился в небольшом поместье Болотные Ялины, хозяйка которого Надежда, - последняя представительница старинного дворянского - шляхетского рода Яновских. Надежда рассказывает Белорецкому о призраках этого дома: Маленьком Человеке, Голубой женщине и Дикой охоте, наводящей страх по всей округе – от нее погиб и отец Надежды. Согласно старинной легенде, дальний предок рода Роман Яновский предательски убил на охоте мужицкого короля Стаха, и тот перед смертью проклял его. С тех пор ни один человек в роду Яновских не умер своей смертью, а многие погибли от Дикой охоты. Белорецкий отказывается верить в эти средневековые суеверия и решает, во что бы то ни стало, разгадать тайну "Дикой охоты короля Стаха"...
Доп. информация:
Сценаристы: Владимир Короткевич, Валерий Рубинчик
Оператор: Татьяна Логинова
Композитор: Евгений Глебов
Художник: Александр Чертович
Производство: Беларусьфильм
Премьера: апрель 1980
Количество зрителей в СССР: 11 300 000
Запись потока *.ts с наземного цифрового телеканала "Беларусь 3".
Релиз:

Благодарность: за помощь с недостающим материалом Bartimeyse. Большое спасибо!
Постер из коллекции советских киноплакатов коллеги tokarevamarina
Во время показа появляется баннер оповещения о трансляции фильма. Видно на скрине.
Страна: СССР
Студия: Беларусьфильм
Продолжительность: 01:03:12 + 01:03:18
Перевод: не требует
Файл
Кодек: AVC (H264)
Качество: DVB
Видео: MPEG4 Video (H264) 720(785)x576 (49:36) 25fps, 2 266 Kbps
Звук: MPEG Audio 48000Hz stereo 256kbps
Семпл
Код:
General
ID                             : 1 (0x1)
Complete name                  : D:Новая  земля 2Художественные фильмыДикая охота короля Стаха (1979)Дикая охота короля Стаха (1979)Дикая охота короля Стаха (1979)_01.ts
Format                         : MPEG-TS
File size                      : 1.17 GiB
Duration                       : 1h 3mn
Overall bit rate mode          : Variable
Overall bit rate               : 2 656 Kbps
Video
ID                             : 513 (0x201)
Menu ID                        : 1 (0x1)
Format                         : AVC
Format/Info                    : Advanced Video Codec
Format profile                 : Main@L3.0
Format settings, CABAC         : Yes
Format settings, ReFrames      : 4 frames
Codec ID                       : 27
Duration                       : 1h 3mn
Bit rate                       : 2 266 Kbps
Width                          : 720 pixels
Height                         : 576 pixels
Display aspect ratio           : 4:3
Frame rate                     : 25.000 fps
Standard                       : PAL
Color space                    : YUV
Chroma subsampling             : 4:2:0
Bit depth                      : 8 bits
Scan type                      : MBAFF
Scan order                     : Top Field First
Bits/(Pixel*Frame)             : 0.219
Stream size                    : 1.00 GiB (85%)
Color primaries                : BT.601 PAL
Transfer characteristics       : BT.470 System B, BT.470 System G
Matrix coefficients            : BT.601
Color range                    : Limited
Audio
ID                             : 514 (0x202)
Menu ID                        : 1 (0x1)
Format                         : MPEG Audio
Format version                 : Version 1
Format profile                 : Layer 2
Codec ID                       : 3
Duration                       : 1h 3mn
Bit rate mode                  : Constant
Bit rate                       : 256 Kbps
Channel(s)                     : 2 channels
Sampling rate                  : 48.0 KHz
Compression mode               : Lossy
Stream size                    : 116 MiB (10%)
Language                       : Russian





   Похожие торренты   Торрент   Размер 
В этой теме нет новых непрочитанных сообщений. Опера - Дикая охота короля Стаха / Дзікае паляванне караля Стаха [BLR] (1989) DVB от AND03AND

3 | 12

1.83 ГБ

В этой теме нет новых непрочитанных сообщений. Дикая охота короля Стаха (1979) DVDRip от Pshichko66

253 | 14

1.46 ГБ

В этой теме нет новых непрочитанных сообщений. Дикая охота короля Стаха (1979) DVDRip-AVC от ExKinoRay

152 | 10

1.93 ГБ

В этой теме нет новых непрочитанных сообщений. Дикая охота / The Wild Hunt (2009) HDRip

0 | 1

1.37 ГБ

В этой теме нет новых непрочитанных сообщений. Дикая охота / The Wild Hunt (2009) DVDRip

1 | 2

763.04 МБ

В этой теме нет новых непрочитанных сообщений. Загадки судьбы: Дикая охота. Коллекционное издание (2014) PC

1631 | 59

1.02 ГБ

В этой теме нет новых непрочитанных сообщений. Ведьмак 3: Дикая Охота / The Witcher 3: Wild Hunt (2015) PC | Лицензия

108 | 28

36.32 ГБ




Вы не можете начинать темы
Вы не можете отвечать на сообщения
Вы не можете редактировать свои сообщения
Вы не можете удалять свои сообщения
Вы не можете добавлять вложения

Перейти:  
Для Мосгорсуда, Роскомнадзора и рекламодателей: mosgorsud-torrent[собачка]yandex.ru
 Вход
ppkBB3cker v.2 © 2008-2014 @ PPK
[ Time : 0.028s | 15 Queries | GZIP : Off ]

cron