img image001 image001 image001 image001 image001 image001 image001 image001 image001 image001 image001 image001 image001 image001 image001

Planets Sun Sun Sun
Статистика раздачи
Автор: PriZraK | Размер: 742.47 МБ | Добавлен: 19 сен 2016
Раздают: 0    Качают: 0
Скачать торрент
Скачать торрент
Описание торрента

СообщениеДобавлено: 19 сен 2016 


Информация о фильме
Название: Трое на шоссе
Год выхода: 1983
Жанр: Драма
Режиссёр: Анатолий Бобровский
В ролях: Армен Джигарханян, Вячеслав Невинный, Тамара Акулова, Борис Токарев (II), Елена Цыплакова, Катя Бондарева, Андрей Дударенко, Юрий Воробьев, Радий Афанасьев, Александр Пятков
О фильме: В фильме три героя. Двое героев — шоферы-дальнобойщики, перевозящие в огромных машинах грузы на дальние расстояния. У одного из них, Виктора Карцева, — сын, невестка, внучка. У другого, Сергея Пушкарева — никого, кроме друга. Третий герой фильма — медсестра Лена. Она любит Карцева, хотя моложе его на двадцать лет. Им предстоит путь из Москвы в Закарпатье. С героями происходит много разных происшествий, а также серьезная ссора. Погибает Сергей, а мужественный и прямолинейный Карцев попадает в, вообщем-то, безнравственную ситуацию. И если бы не женщина, которая его давно любит и которая будет для него главной опорой, он бы не смог вернуться в Москву...

Страна: СССР
Студия: Мосфильм
Продолжительность: 01:24:21
Перевод: Не требуется (оригинальный)
Файл
Формат: avi
Качество: SATRip (DVB)
Видео: XviD, 624х480, 25fps, 1093kbps
Аудио: MPEG Layer 3, 2ch, 48000Hz, 128kbps

General
Complete name : Troe.Na.Shosse.1983.O.SATRip.700.CurHaJI.avi
Format : AVI
Format/Info : Audio Video Interleave
File size : 742 MiB
Duration : 1h 24mn
Overall bit rate : 1 231 Kbps
Movie name : Troe.Na.Shosse.1983.O.SATRip.700.CurHaJI
Writing application : VirtualDubMod 1.5.10.3 | www.virtualdub-fr.org || (build 2550/release)
Writing library : VirtualDub build 35491/release
Video
ID : 0
Format : MPEG-4 Visual
Format profile : Advanced Simple@L5
Format settings, BVOP : 2
Format settings, QPel : No
Format settings, GMC : No warppoints
Format settings, Matrix : Custom
Codec ID : XVID
Codec ID/Hint : XviD
Duration : 1h 24mn
Bit rate : 1 093 Kbps
Width : 624 pixels
Height : 480 pixels
Display aspect ratio : 4:3
Frame rate : 25.000 fps
Color space : YUV
Chroma subsampling : 4:2:0
Bit depth : 8 bits
Scan type : Progressive
Compression mode : Lossy
Bits/(Pixel*Frame) : 0.146
Stream size : 659 MiB (89%)
Writing library : XviD 73
Audio
ID : 1
Format : MPEG Audio
Format version : Version 1
Format profile : Layer 3
Codec ID : 55
Codec ID/Hint : MP3
Duration : 1h 24mn
Bit rate mode : Constant
Bit rate : 128 Kbps
Channel(s) : 2 channels
Sampling rate : 48.0 KHz
Compression mode : Lossy
Stream size : 77.2 MiB (10%)
Alignment : Aligned on interleaves
Interleave, duration : 40 ms (1.00 video frame)
Interleave, preload duration : 504 ms
Writing library : LAME3.99r
Encoding settings : -m s -V 4 -q 2 -lowpass 17 -b 128


Релиз от:



   Похожие торренты   Торрент   Размер 
В этой теме нет новых непрочитанных сообщений. Трое на шоссе (1983) SATRip

166 | 10

1.22 ГБ

В этой теме нет новых непрочитанных сообщений. Трое (1988) SATRip

2 | 8

1007.16 МБ

В этой теме нет новых непрочитанных сообщений. Трое / Three / Drei [S01] (1998) SATRip

119 | 64

3.82 ГБ

В этой теме нет новых непрочитанных сообщений. Трое на острове (1986) SATRip от Generalfilm

27 | 8

150.77 МБ

В этой теме нет новых непрочитанных сообщений. Трое сверху [01x01-50] SATRip, TVRip

16 | 4

9.74 ГБ

В этой теме нет новых непрочитанных сообщений. Трое вышли из леса (1958) SATRip от Youtracker

4 | 3

744.89 МБ

В этой теме нет новых непрочитанных сообщений. Трое вышли из леса (1958) SATRip от Youtracker

4 | 3

1.46 ГБ




Вы не можете начинать темы
Вы не можете отвечать на сообщения
Вы не можете редактировать свои сообщения
Вы не можете удалять свои сообщения
Вы не можете добавлять вложения

Перейти:  
Для Мосгорсуда, Роскомнадзора и рекламодателей: mosgorsud-torrent[собачка]yandex.ru
 Вход
ppkBB3cker v.2 © 2008-2014 @ PPK
[ Time : 0.035s | 16 Queries | GZIP : Off ]

Торрент трекер RUTOR.IN, Не можете зайти на rutor.org? Какой новый адрес рутор? Какое зеркало рутор? Не работает rutor.org и зеркала? Тогда наш торрент специально для вас. Rutor.in неофициальное зеркало rutor. В случае если у Вас заблокирован rutor или вдруг Вы не можете на него зайти, то Вы без труда сможете скачать бесплатно и без рекламы последние новинки кино, игр, сериалов и прочего у нас, на Rutor.in. Не нужно использовать прокси, чтобы зайти на рутор, достаточно воспользоваться нашим ресурсом. Все новые фильмы, игры, сериалы, книги и музыка за 2013 и 2014 годы через торрент бесплатно. Скачивайте фильмы в хорошем качестве, игры для пк, xbox, playstation без регистрации. У нас вы найдете новые Зарубежные сериалы и Русские сериалы 2013, 2014, 2015 годов. Оставайтесь с нами, качайте любимые фильмы, игры, сериалы, книги и музыку.