img image001 image001 image001 image001 image001 image001 image001 image001 image001 image001 image001 image001 image001 image001 image001

Planets Sun Sun Sun
Статистика раздачи
Автор: PriZraK | Размер: 707.7 МБ | Добавлен: 19 сен 2016
Раздают: 0    Качают: 0
Скачать торрент
Скачать торрент
Описание торрента

СообщениеДобавлено: 19 сен 2016 


Информация о фильме
Название: Москва никогда не спит
Год выхода: 2015
Жанр: Драма, комедия, триллер
Режиссер: Джонни О’Райлли
В ролях: Евгения Брик (Хиривская), Михаил Ефремов, Алексей Серебряков, Виктор Вержбицкий, Алёна Бабенко, Юрий Стоянов, Любовь Аксёнова, Олег Долин, Яна Попова, Соня Реснянская
О фильме:
В день, когда Москва празднует очередной день рождения, каждый из пяти героев должен будет сделать свой жизненный выбор. Их судьбы пересекутся и изменятся навсегда. Предприниматель должен отстоять свой бизнес, которому угрожают госчиновники; начинающая певица разрывается между любовью и деньгами; знаменитый актер, которого похищают среди белого дня, наконец-то сможет побыть собой и сказать правду; молодой человек ищет возможность соединить долг и собственные желания; а ненавидящим друг друга сводным сестрам за одну опасную ночь удастся найти взаимопонимание. Связанные скрытыми узами, герои представят яркий портрет мегаполиса в День города. Под взрывы салюта раскроется безудержная энергия крупнейшего города Европы.

Страна: Россия, Ирландия
Студия: Blinder Films, НТВ-Кино, Snapshot Films
Продолжительность: 01:30:42
Перевод: Не требуется
Файл
Кодек: XviD
Качество: HDTVRip
Видео: 656x272 (2.40:1), 25 fps, XviD build 73 ~953 kbps avg, 0.21 bit/pixel
Звук: 48 kHz, MPEG Layer 3, 2 ch, ~128.00 kbps avg
Субтитры: Отсутствуют
Семпл
General
Complete name : E:Изготовление рипаMoskva.nikogda.ne.spit.2015.HDTVRip.by shkiper.avi
Format : AVI
Format/Info : Audio Video Interleave
File size : 708 MiB
Duration : 1h 30mn
Overall bit rate : 1 091 Kbps
Writing application : VirtualDubMod 1.5.10.3 | www.virtualdub-fr.org || (build 2550/release)
Writing library : VirtualDubMod build 2550/release
Video
ID : 0
Format : MPEG-4 Visual
Format profile : Advanced Simple@L5
Format settings, BVOP : 1
Format settings, QPel : No
Format settings, GMC : No warppoints
Format settings, Matrix : Custom
Codec ID : XVID
Codec ID/Hint : XviD
Duration : 1h 30mn
Bit rate : 953 Kbps
Width : 656 pixels
Height : 272 pixels
Display aspect ratio : 2.40:1
Frame rate : 25.000 fps
Color space : YUV
Chroma subsampling : 4:2:0
Bit depth : 8 bits
Scan type : Progressive
Compression mode : Lossy
Bits/(Pixel*Frame) : 0.214
Stream size : 618 MiB (87%)
Writing library : XviD 73
Audio
ID : 1
Format : MPEG Audio
Format version : Version 1
Format profile : Layer 3
Codec ID : 55
Codec ID/Hint : MP3
Duration : 1h 30mn
Bit rate mode : Constant
Bit rate : 128 Kbps
Channel(s) : 2 channels
Sampling rate : 48.0 KHz
Compression mode : Lossy
Stream size : 83.0 MiB (12%)
Alignment : Aligned on interleaves
Interleave, duration : 40 ms (1.00 video frame)
Interleave, preload duration : 504 ms
Writing library : LAME3.99r
Encoding settings : -m s -V 4 -q 2 -lowpass 17 -b 128

Релиз от:



   Похожие торренты   Торрент   Размер 
В этой теме нет новых непрочитанных сообщений. Москва никогда не спит (2015) HDTVRip от ImperiaFilm | КПК

0 | 0

310.05 МБ

В этой теме нет новых непрочитанных сообщений. Москва никогда не спит (2015) HDTVRip 720p от MediaClub

0 | 0

2.65 ГБ

В этой теме нет новых непрочитанных сообщений. Москва никогда не спит (2015) WEBRip

4908 | 191

1.46 ГБ

В этой теме нет новых непрочитанных сообщений. Москва никогда не спит (2015) WEBRip-AVC

497 | 5

701.71 МБ

В этой теме нет новых непрочитанных сообщений. Москва никогда не спит (2015) WEB-DL 720p | iTunes

609 | 41

3.1 ГБ

В этой теме нет новых непрочитанных сообщений. Москва никогда не спит (2015) WEB-DL 1080p | iTunes

1172 | 57

3.34 ГБ

В этой теме нет новых непрочитанных сообщений. Москва никогда не спит (2015) WEB-DLRip | iTunes

3249 | 143

1.46 ГБ




Вы не можете начинать темы
Вы не можете отвечать на сообщения
Вы не можете редактировать свои сообщения
Вы не можете удалять свои сообщения
Вы не можете добавлять вложения

Перейти:  
Для Мосгорсуда, Роскомнадзора и рекламодателей: mosgorsud-torrent[собачка]yandex.ru
 Вход
ppkBB3cker v.2 © 2008-2014 @ PPK
[ Time : 0.043s | 15 Queries | GZIP : Off ]

cron