img image001 image001 image001 image001 image001 image001 image001 image001 image001 image001 image001 image001 image001 image001 image001

Planets Sun Sun Sun
Статистика раздачи
Автор: PriZraK | Размер: 310.05 МБ | Добавлен: 19 сен 2016
Раздают: 0    Качают: 0
Скачать торрент
Скачать торрент
Описание торрента

СообщениеДобавлено: 19 сен 2016 


Информация о фильме
Название: Москва никогда не спит
Год выхода: 2015
Жанр: Драма, комедия, триллер
Режиссер: Джонни О’Райлли
В ролях: Евгения Брик (Хиривская), Михаил Ефремов, Алексей Серебряков, Виктор Вержбицкий, Алёна Бабенко, Юрий Стоянов, Любовь Аксёнова, Олег Долин, Яна Попова, Соня Реснянская
О фильме:
В день, когда Москва празднует очередной день рождения, каждый из пяти героев должен будет сделать свой жизненный выбор. Их судьбы пересекутся и изменятся навсегда. Предприниматель должен отстоять свой бизнес, которому угрожают госчиновники; начинающая певица разрывается между любовью и деньгами; знаменитый актер, которого похищают среди белого дня, наконец-то сможет побыть собой и сказать правду; молодой человек ищет возможность соединить долг и собственные желания; а ненавидящим друг друга сводным сестрам за одну опасную ночь удастся найти взаимопонимание. Связанные скрытыми узами, герои представят яркий портрет мегаполиса в День города. Под взрывы салюта раскроется безудержная энергия крупнейшего города Европы.

Страна: Россия, Ирландия
Студия: Blinder Films, НТВ-Кино, Snapshot Films
Продолжительность: 01:30:42
Перевод: Не требуется
Файл
Кодек: h264
Качество: HDTVRip| КПК
Видео: MPEG4 Video (H264), 496x208 (2.40:1), 25fps, 349kbps, 0.136 Bits/Pixel
Звук: AAC lc, 44100 Hz, 2ch, 125 kb/s
Субтитры: Отсутствуют
Семпл
General
Complete name : E:Изготовление рипаMoskva.nikogda.ne.spit.2015.HDTVRip.by shkiper.mp4
Format : MPEG-4
Format profile : Base Media
Codec ID : isom (isom/avc1)
File size : 310 MiB
Duration : 1h 30mn
Overall bit rate mode : Variable
Overall bit rate : 478 Kbps
Encoded date : UTC 2016-09-11 12:41:28
Tagged date : UTC 2016-09-11 12:41:28
Video
ID : 1
Format : AVC
Format/Info : Advanced Video Codec
Format profile : Baseline@L3
Format settings, CABAC : No
Format settings, ReFrames : 1 frame
Codec ID : avc1
Codec ID/Info : Advanced Video Coding
Duration : 1h 30mn
Bit rate : 350 Kbps
Maximum bit rate : 1 068 Kbps
Width : 496 pixels
Height : 208 pixels
Display aspect ratio : 2.40:1
Frame rate mode : Constant
Frame rate : 25.000 fps
Color space : YUV
Chroma subsampling : 4:2:0
Bit depth : 8 bits
Scan type : Progressive
Bits/(Pixel*Frame) : 0.136
Stream size : 227 MiB (73%)
Title : Imported with GPAC 0.4.6-DEV (internal rev. 5)
Writing library : x264 core 67 r1165M 6841c5e
Encoding settings : cabac=0 / ref=1 / deblock=1:0:0 / analyse=0x1:0 / me=hex / subme=6 / psy_rd=1.0:0.0 / mixed_ref=0 / me_range=16 / chroma_me=1 / trellis=0 / 8x8dct=0 / cqm=0 / deadzone=21,11 / chroma_qp_offset=-2 / threads=3 / nr=0 / decimate=1 / mbaff=0 / bframes=0 / keyint=250 / keyint_min=25 / scenecut=40 / rc=2pass / bitrate=350 / ratetol=1.0 / qcomp=0.60 / qpmin=10 / qpmax=51 / qpstep=4 / cplxblur=20.0 / qblur=0.5 / vbv_maxrate=1500 / vbv_bufsize=2000 / ip_ratio=1.40 / aq=1:1.00
Encoded date : UTC 2016-09-11 12:41:28
Tagged date : UTC 2016-09-11 12:42:15
Audio
ID : 2
Format : AAC
Format/Info : Advanced Audio Codec
Format profile : LC
Codec ID : 40
Duration : 1h 30mn
Bit rate mode : Variable
Bit rate : 126 Kbps
Maximum bit rate : 192 Kbps
Channel(s) : 2 channels
Channel positions : Front: L R
Sampling rate : 44.1 KHz
Frame rate : 43.066 fps (1024 spf)
Compression mode : Lossy
Stream size : 81.4 MiB (26%)
Title : Imported with GPAC 0.4.6-DEV (internal rev. 5)
Encoded date : UTC 2016-09-11 12:42:02
Tagged date : UTC 2016-09-11 12:42:15

Релиз от:



   Похожие торренты   Торрент   Размер 
В этой теме нет новых непрочитанных сообщений. Москва никогда не спит (2015) HDTVRip от ImperiaFilm

0 | 0

707.7 МБ

В этой теме нет новых непрочитанных сообщений. Москва никогда не спит (2015) HDTVRip 720p от MediaClub

0 | 0

2.65 ГБ

В этой теме нет новых непрочитанных сообщений. Москва никогда не спит (2015) WEBRip

4908 | 191

1.46 ГБ

В этой теме нет новых непрочитанных сообщений. Москва никогда не спит (2015) WEBRip-AVC

497 | 5

701.71 МБ

В этой теме нет новых непрочитанных сообщений. Москва никогда не спит (2015) WEBRip от AleksSin

387 | 12

745.51 МБ

В этой теме нет новых непрочитанных сообщений. Москва никогда не спит (2015) WEBRip 720p

1488 | 22

3.13 ГБ

В этой теме нет новых непрочитанных сообщений. Москва никогда не спит (2015) WEB-DL 720p | iTunes

609 | 41

3.1 ГБ




Вы не можете начинать темы
Вы не можете отвечать на сообщения
Вы не можете редактировать свои сообщения
Вы не можете удалять свои сообщения
Вы не можете добавлять вложения

Перейти:  
Для Мосгорсуда, Роскомнадзора и рекламодателей: mosgorsud-torrent[собачка]yandex.ru
 Вход
ppkBB3cker v.2 © 2008-2014 @ PPK
[ Time : 0.045s | 15 Queries | GZIP : Off ]

cron