img image001 image001 image001 image001 image001 image001 image001 image001 image001 image001 image001 image001 image001 image001 image001

Planets Sun Sun Sun
Статистика раздачи
Автор: PriZraK | Размер: 303.29 МБ | Добавлен: 19 сен 2016
Раздают: 5    Качают: 0
Скачать торрент
Скачать торрент
Описание торрента

СообщениеДобавлено: 19 сен 2016 


Информация о фильме
Название: Снегурочка
Год выхода: 1968
Жанр: Мюзикл, фэнтези, мелодрама, семейный
Режиссер: Павел Кадочников
В ролях: Евгения Филонова, Евгений Жариков, Ирина Губанова, Борис Химичев, Павел Кадочников, Наталья Климова, Валерий Малышев, Станислав Фесюнов, Владимир Костин, Сергей Филиппов
О фильме:
Снегурочка — дочь Деда Мороза и Красавицы Весны. Ее ледяное сердце никогда еще не ведало простых человеческих радостей, никогда не знало любви до встречи с Лелем.
Его душевное тепло подарило девушке богатство окружающего мира, растопило сердце холодной красавицы. В фильме есть и чудесная природа, и веселые хороводы, и игры, и песни — все, без чего не может быть настоящей русской сказки.

Страна: СССР
Студия: Ленфильм
Продолжительность: 01:27:58
Перевод: Не требуется
Файл
Кодек: h264
Качество: DVDRip| КПК
Видео: MPEG4 Video (H264), 512x288 (16:9), 25fps, 349kbps, 0.095 Bits/Pixel
Звук: AAC lc, 48000 Hz, 2ch, 128 kb/s
Субтитры: Отсутствуют
Семпл
General
Complete name : E:Изготовление рипаSnegurochka.1968.DVDrip by shkiper.mp4
Format : MPEG-4
Format profile : Base Media
Codec ID : isom
File size : 303 MiB
Duration : 1h 27mn
Overall bit rate mode : Variable
Overall bit rate : 482 Kbps
Encoded date : UTC 2016-09-13 12:21:07
Tagged date : UTC 2016-09-13 12:21:07
Video
ID : 1
Format : AVC
Format/Info : Advanced Video Codec
Format profile : High@L2.1
Format settings, CABAC : Yes
Format settings, ReFrames : 4 frames
Codec ID : avc1
Codec ID/Info : Advanced Video Coding
Duration : 1h 27mn
Bit rate : 350 Kbps
Maximum bit rate : 1 463 Kbps
Width : 512 pixels
Height : 288 pixels
Display aspect ratio : 16:9
Frame rate mode : Constant
Frame rate : 25.000 fps
Color space : YUV
Chroma subsampling : 4:2:0
Bit depth : 8 bits
Scan type : Progressive
Bits/(Pixel*Frame) : 0.095
Stream size : 220 MiB (73%)
Writing library : x264 core 130 r2273 b3065e6
Encoding settings : cabac=1 / ref=3 / deblock=1:0:0 / analyse=0x3:0x113 / me=hex / subme=7 / psy=1 / psy_rd=1.00:0.00 / mixed_ref=1 / me_range=16 / chroma_me=1 / trellis=1 / 8x8dct=1 / cqm=0 / deadzone=21,11 / fast_pskip=1 / chroma_qp_offset=-2 / threads=3 / lookahead_threads=1 / sliced_threads=0 / nr=0 / decimate=1 / interlaced=0 / bluray_compat=0 / constrained_intra=0 / bframes=3 / b_pyramid=2 / b_adapt=1 / b_bias=0 / direct=3 / weightb=1 / open_gop=0 / weightp=2 / keyint=250 / keyint_min=25 / scenecut=40 / intra_refresh=0 / rc_lookahead=40 / rc=2pass / mbtree=1 / bitrate=350 / ratetol=1.0 / qcomp=0.60 / qpmin=0 / qpmax=69 / qpstep=4 / cplxblur=20.0 / qblur=0.5 / ip_ratio=1.40 / aq=1:1.00
Encoded date : UTC 2016-09-13 12:21:07
Tagged date : UTC 2016-09-13 12:21:34
Audio
ID : 2
Format : AAC
Format/Info : Advanced Audio Codec
Format profile : LC
Codec ID : 40
Duration : 1h 27mn
Bit rate mode : Variable
Bit rate : 128 Kbps
Maximum bit rate : 135 Kbps
Channel(s) : 2 channels
Channel positions : Front: L R
Sampling rate : 48.0 KHz
Compression mode : Lossy
Stream size : 80.5 MiB (27%)
Encoded date : UTC 2016-09-13 12:21:27
Tagged date : UTC 2016-09-13 12:21:34

Релиз от:



   Похожие торренты   Торрент   Размер 
В этой теме нет новых непрочитанных сообщений. Снегурочка (1968) DVDRip

38 | 8

1.36 ГБ

В этой теме нет новых непрочитанных сообщений. Снегурочка (1968) DVDRip от Шкипер

143 | 8

744.4 МБ

В этой теме нет новых непрочитанных сообщений. Снегурочка (1968) DVDRip от Шкипер

15 | 3

744.18 МБ

В этой теме нет новых непрочитанных сообщений. Снегурочка (1968) DVD5 | Реставрация

72 | 31

4 ГБ

В этой теме нет новых непрочитанных сообщений. Снегурочка (1952) DVDRip

13 | 3

1.37 ГБ

В этой теме нет новых непрочитанных сообщений. Снегурочка (2013) DVDRip-AVC

198 | 44

2.06 ГБ

В этой теме нет новых непрочитанных сообщений. Снегурочка (2013) DVDRip

293 | 29

749.87 МБ




Вы не можете начинать темы
Вы не можете отвечать на сообщения
Вы не можете редактировать свои сообщения
Вы не можете удалять свои сообщения
Вы не можете добавлять вложения

Перейти:  
Для Мосгорсуда, Роскомнадзора и рекламодателей: mosgorsud-torrent[собачка]yandex.ru
 Вход
ppkBB3cker v.2 © 2008-2014 @ PPK
[ Time : 0.052s | 17 Queries | GZIP : Off ]

Торрент трекер RUTOR.IN, Не можете зайти на rutor.org? Какой новый адрес рутор? Какое зеркало рутор? Не работает rutor.org и зеркала? Тогда наш торрент специально для вас. Rutor.in неофициальное зеркало rutor. В случае если у Вас заблокирован rutor или вдруг Вы не можете на него зайти, то Вы без труда сможете скачать бесплатно и без рекламы последние новинки кино, игр, сериалов и прочего у нас, на Rutor.in. Не нужно использовать прокси, чтобы зайти на рутор, достаточно воспользоваться нашим ресурсом. Все новые фильмы, игры, сериалы, книги и музыка за 2013 и 2014 годы через торрент бесплатно. Скачивайте фильмы в хорошем качестве, игры для пк, xbox, playstation без регистрации. У нас вы найдете новые Зарубежные сериалы и Русские сериалы 2013, 2014, 2015 годов. Оставайтесь с нами, качайте любимые фильмы, игры, сериалы, книги и музыку.