img image001 image001 image001 image001 image001 image001 image001 image001 image001 image001 image001 image001 image001 image001 image001

Planets Sun Sun Sun
Статистика раздачи
Автор: PriZraK | Размер: 743.95 МБ | Добавлен: 19 сен 2016
Раздают: 10    Качают: 0
Скачать торрент
Скачать торрент
Описание торрента

СообщениеДобавлено: 19 сен 2016 


Информация о фильме
Название: С 8 марта, мужчины!
Год выхода: 2014
Жанр: Мелодрама, комедия
Режиссер: Артем Аксененко
В ролях: Мария Берсенева, Максим Виторган, Светлана Иванова, Михаил Башкатов, Вера Алентова, Константин Лавиш, Ксения Бородина, Владислав Лисовец, Стивен Нельсон, Алексей Климушкин
О фильме:
Анна Беркутова — блондинка в броне из мини-юбки и глубокого декольте. Ее оружие — красота, ум и абсолютная уверенность в том, что она знает мужчин. Она ведет важный проект в Сколково и собирается замуж за богатого иностранца. Но в день ее рождения, 8 марта, ее четкая, как финансовый отчет, судьба меняется: Аню бросает жених, ее проект крадут из Сколково, а сама она начинает слышать мысли мужчин. Эта способность сначала доводит ее до отчаяния, а затем открывает широкие возможности…

Страна: Россия, Беларусь
Студия: Беларусьфильм, Москит
Продолжительность: 01:38:34
Перевод: Не требуется [Лицензия]
Файл
Качество: DVDRip
Кодек: XviD
Видео: 624x352 (16:9), 25 fps, XviD ~918 kbps avg, 0.167 bit/pixel
Аудио: 48 kHz, MP3, 2 ch, ~128.00 kbps avg | русский
Субтитры: Отсутствуют
Семпл
Общее
Полное имя : D:S.8.Marta.Muzchiny.2014.O.DVDRip.745Mb.avi
Формат : AVI
Формат/Информация : Audio Video Interleave
Размер файла : 744 Мбайт
Продолжительность : 1 ч. 38 м.
Общий поток : 1055 Кбит/сек
Программа кодирования : VirtualDubMod 1.5.10.3 (build 2550/release)
Библиотека кодирования : VirtualDubMod build 2550/release
Видео
Идентификатор : 0
Формат : MPEG-4 Visual
Профиль формата : Advanced Simple@L5
Параметр BVOP формата : 2
Параметр QPel формата : Нет
Параметр GMC формата : Без точки перехода
Параметр матрицы формата : Default (MPEG)
Режим смешивания : Сжатый битовый поток
Идентификатор кодека : XVID
Идентификатор кодека/Подсказка : XviD
Продолжительность : 1 ч. 38 м.
Битрейт : 918 Кбит/сек
Ширина : 624 пикселя
Высота : 352 пикселя
Соотношение сторон : 16:9
Частота кадров : 25,000 кадров/сек
Цветовое пространство : YUV
Субдискретизация насыщенности : 4:2:0
Битовая глубина : 8 бит
Тип развёртки : Прогрессивная
Метод сжатия : С потерями
Бит/(Пиксели*Кадры) : 0.167
Размер потока : 647 Мбайт (87%)
Библиотека кодирования : XviD 73
Аудио
Идентификатор : 1
Формат : MPEG Audio
Версия формата : Version 1
Профиль формата : Layer 3
Режим : Joint stereo
Расширение режима : MS Stereo
Идентификатор кодека : 55
Идентификатор кодека/Подсказка : MP3
Продолжительность : 1 ч. 38 м.
Вид битрейта : Постоянный
Битрейт : 128 Кбит/сек
Каналы : 2 канала
Частота : 48,0 КГц
Метод сжатия : С потерями
Размер потока : 90,2 Мбайт (12%)
Выравнивание : Соединение по промежуткам
Продолжительность промежутка : 40 мс. (1,00 видеокадр)
Время предзагрузки промежутка : 504 мс.
Библиотека кодирования : LAME3.97



   Похожие торренты   Торрент   Размер 
В этой теме нет новых непрочитанных сообщений. С 8 марта, мужчины! (2014) DVDRip | Лицензия

25 | 1

1.46 ГБ

В этой теме нет новых непрочитанных сообщений. С 8 марта, мужчины! (2014) DVDRip-AVC от ExKinoRay | Лицензия

34 | 6

744.67 МБ

В этой теме нет новых непрочитанных сообщений. С 8 марта, мужчины! (2014) DVDRip-AVC от ExKinoRay | Лицензия

54 | 10

1.46 ГБ

В этой теме нет новых непрочитанных сообщений. С 8 марта, мужчины! (2014) DVD9 | лицензия

0 | 0

5.62 ГБ

В этой теме нет новых непрочитанных сообщений. С 8 марта, мужчины! (2014) WEBRip

435 | 40

750.73 МБ

В этой теме нет новых непрочитанных сообщений. С 8 марта, мужчины! (2014) WEBRip

10664 | 1305

1.37 ГБ

В этой теме нет новых непрочитанных сообщений. С 8 марта, мужчины! (2014) WEB-DLRip | iTunes

989 | 23

1.37 ГБ




Вы не можете начинать темы
Вы не можете отвечать на сообщения
Вы не можете редактировать свои сообщения
Вы не можете удалять свои сообщения
Вы не можете добавлять вложения

Перейти:  
Для Мосгорсуда, Роскомнадзора и рекламодателей: mosgorsud-torrent[собачка]yandex.ru
 Вход
ppkBB3cker v.2 © 2008-2014 @ PPK
[ Time : 0.054s | 14 Queries | GZIP : Off ]

Торрент трекер RUTOR.IN, Не можете зайти на rutor.org? Какой новый адрес рутор? Какое зеркало рутор? Не работает rutor.org и зеркала? Тогда наш торрент специально для вас. Rutor.in неофициальное зеркало rutor. В случае если у Вас заблокирован rutor или вдруг Вы не можете на него зайти, то Вы без труда сможете скачать бесплатно и без рекламы последние новинки кино, игр, сериалов и прочего у нас, на Rutor.in. Не нужно использовать прокси, чтобы зайти на рутор, достаточно воспользоваться нашим ресурсом. Все новые фильмы, игры, сериалы, книги и музыка за 2013 и 2014 годы через торрент бесплатно. Скачивайте фильмы в хорошем качестве, игры для пк, xbox, playstation без регистрации. У нас вы найдете новые Зарубежные сериалы и Русские сериалы 2013, 2014, 2015 годов. Оставайтесь с нами, качайте любимые фильмы, игры, сериалы, книги и музыку.