img image001 image001 image001 image001 image001 image001 image001 image001 image001 image001 image001 image001 image001 image001 image001

Planets Sun Sun Sun
Статистика раздачи
Автор: PriZraK | Размер: 744.14 МБ | Добавлен: 19 сен 2016
Раздают: 0    Качают: 0
Скачать торрент
Скачать торрент
Описание торрента

СообщениеДобавлено: 19 сен 2016 


Информация о фильме
Название: Гонка века
Год выхода: 1986
Жанр: Драма
Режиссёр: Никита Орлов
В ролях: Элле Кулль, Леонхард Мерзин, Ростислав Янковский, Гирт Яковлев, Андрей Крюков, Улдис Лиелдидж, Витаутас Томкус, Василий Корзун, Владимир Эренберг, Тыну Луме, Владимир Сапожнин, Алекпер Алекперов, Николай Хрусталёв, Николай Томашевский, Наталья Гусева (I), Майт Лепик, Владимир Лаптев (I), Евгений Власов, Кенно Оя
О фильме: Из Англии стартовала кругосветная парусная гонка "Золотой глобус". По условиям гонки заходить по пути в какие-либо порты и гавани запрещалось. Во время шторма судно Дональда Кроухорста вышло из строя. Вынужденный остановиться вблизи аргентинского порта, он скрыл нарушение условия гонки и продолжил лидерство...

Страна: СССР
Студия: Мосфильм
Продолжительность: 01:26:16
Перевод: Не требуется (оригинальный)
Файл
Формат: avi
Качество: SATRip (DVB)
Видео: XviD, 640х496, 25fps, 1068kbps
Аудио: MPEG Layer 3, 2ch, 48000Hz, 128kbps

General
Complete name : Gonka.Veka.1986.O.SATRip.700.CurHaJI.avi
Format : AVI
Format/Info : Audio Video Interleave
File size : 744 MiB
Duration : 1h 26mn
Overall bit rate : 1 206 Kbps
Movie name : Gonka.Veka.1986.O.SATRip.700.CurHaJI
Writing application : VirtualDubMod 1.5.10.3 | www.virtualdub-fr.org || (build 2550/release)
Writing library : VirtualDub build 35491/release
Video
ID : 0
Format : MPEG-4 Visual
Format profile : Advanced Simple@L5
Format settings, BVOP : 2
Format settings, QPel : No
Format settings, GMC : No warppoints
Format settings, Matrix : Custom
Codec ID : XVID
Codec ID/Hint : XviD
Duration : 1h 26mn
Bit rate : 1 068 Kbps
Width : 640 pixels
Height : 496 pixels
Display aspect ratio : 1.290
Frame rate : 25.000 fps
Color space : YUV
Chroma subsampling : 4:2:0
Bit depth : 8 bits
Scan type : Progressive
Compression mode : Lossy
Bits/(Pixel*Frame) : 0.135
Stream size : 659 MiB (89%)
Writing library : XviD 73
Audio
ID : 1
Format : MPEG Audio
Format version : Version 1
Format profile : Layer 3
Codec ID : 55
Codec ID/Hint : MP3
Duration : 1h 26mn
Bit rate mode : Constant
Bit rate : 128 Kbps
Channel(s) : 2 channels
Sampling rate : 48.0 KHz
Compression mode : Lossy
Stream size : 79.0 MiB (11%)
Alignment : Aligned on interleaves
Interleave, duration : 40 ms (1.00 video frame)
Interleave, preload duration : 504 ms
Writing library : LAME3.99r
Encoding settings : -m s -V 4 -q 2 -lowpass 17 -b 128


Релиз от:



   Похожие торренты   Торрент   Размер 
В этой теме нет новых непрочитанных сообщений. Гонка века (1986) HDTVRip

14 | 12

1.45 ГБ

В этой теме нет новых непрочитанных сообщений. Биатлон. Рождественская гонка звезд. Гонка преследования. (Германия) [Россия 2] [28.12] (2013) SATRip от MediaClub

0 | 1

634.24 МБ

В этой теме нет новых непрочитанных сообщений. Пираты 21 века (2009) SATRip

6 | 8

503.22 МБ

В этой теме нет новых непрочитанных сообщений. Оружие ХХ века [01-173] (2008-2011) SATRip

82 | 31

27.37 ГБ

В этой теме нет новых непрочитанных сообщений. Конец века (2001) SATRip от КинозалSAT

3 | 2

1.76 ГБ

В этой теме нет новых непрочитанных сообщений. Болезни века. Кто кого? [эфир 28.01] (2013) SATRip

1 | 3

702.65 МБ

В этой теме нет новых непрочитанных сообщений. Кто заплатил Ленину? Тайна века (2010) SATRip

7 | 2

700.02 МБ




Вы не можете начинать темы
Вы не можете отвечать на сообщения
Вы не можете редактировать свои сообщения
Вы не можете удалять свои сообщения
Вы не можете добавлять вложения

Перейти:  
Для Мосгорсуда, Роскомнадзора и рекламодателей: mosgorsud-torrent[собачка]yandex.ru
 Вход
ppkBB3cker v.2 © 2008-2014 @ PPK
[ Time : 0.042s | 14 Queries | GZIP : Off ]

Торрент трекер RUTOR.IN, Не можете зайти на rutor.org? Какой новый адрес рутор? Какое зеркало рутор? Не работает rutor.org и зеркала? Тогда наш торрент специально для вас. Rutor.in неофициальное зеркало rutor. В случае если у Вас заблокирован rutor или вдруг Вы не можете на него зайти, то Вы без труда сможете скачать бесплатно и без рекламы последние новинки кино, игр, сериалов и прочего у нас, на Rutor.in. Не нужно использовать прокси, чтобы зайти на рутор, достаточно воспользоваться нашим ресурсом. Все новые фильмы, игры, сериалы, книги и музыка за 2013 и 2014 годы через торрент бесплатно. Скачивайте фильмы в хорошем качестве, игры для пк, xbox, playstation без регистрации. У нас вы найдете новые Зарубежные сериалы и Русские сериалы 2013, 2014, 2015 годов. Оставайтесь с нами, качайте любимые фильмы, игры, сериалы, книги и музыку.