img image001 image001 image001 image001 image001 image001 image001 image001 image001 image001 image001 image001 image001 image001 image001

Planets Sun Sun Sun
Статистика раздачи
Автор: PriZraK | Размер: 1.89 ГБ | Добавлен: 19 сен 2016
Раздают: 0    Качают: 0
Скачать торрент
Скачать торрент
Описание торрента

СообщениеДобавлено: 19 сен 2016 

Информация о фильме
Оригинальное название: Противостояние. Брат против брата
Год выпуска: 2005
Жанр: Боевик, ВОВ
Режиссер: Виталий Воробьев
В ролях: Кирилл Плетнёв, Михаил Присмотров-Белов, Ян Цапник, Иван Моховиков, Вадим Андреев, Татьяна Арнтгольц, Алексей Ильин, Захар Ронжин, Сергей Жарков, Олег Валкман, Елизавета Арзамасова, Александр Сигуев, Любовь Омельченко, Лев Прыгунов, Сергей Удовик, Григорий Калинин, Ольга Равицкая, Юрий Лопарёв, Валерий Крупенин, Михаил Крылов, Александр Бабий, Пётр Зинченко, Ольга Лоскутова, Валерий Швец, Олег Шапко, Александр Числов, Лаврентий Светличный, Владимир Яворский, Юрий Сафаров
О фильме: С огромным трудом и огромными потерями Советской армии удалось освободить от фашистов Молдавию Но хитрые немецкие умы оставили сюрприз советским воинам. Чтоб навредить солдатам Красной армии и очернить их в глазах жителей тыловых поселков, немцы оставили отряд "власовцев", которые переодевшись в советскую военную форму убивали, насиловали и грабили сельчан. Злость и бессилие овладело жителями, проклятия в адрес советских войск летели из уст людей, которые были обалванены немецкой хитростью. Тогда отряд разведчиков с командиром Бесфамильным взял на себя миссию выявить и ликвидировать фашистское племя.

Выпущено: Россия, Монтэк
Продолжительность: 01:48:44
Перевод: Не требуется
Файл
Качество: DVDRip (AVC)
Видео: MPEG-4 AVC, 2045 Кбит/с, 716x460@764x460
Аудио: AC3, 6 ch, 448 Кбит/с
General
Unique ID : 172924810301770020990629617363800576248 (0x82181B663CBA3C85B258604054F850F8)
Complete name : E:Protivostoianie.2006.DVDRip.AVC.ExKinoRay.mkv
Format : Matroska
Format version : Version 2
File size : 1.89 GiB
Duration : 1 h 48 min
Overall bit rate : 2 495 kb/s
Movie name : Противостояние 2006 from ExKinoRay
Encoded date : UTC 2016-09-17 01:37:49
Writing application : mkvmerge v7.6.0 ('Garden of Dreams') 32bit built on Feb 11 2015 00:18:47
Writing library : libebml v1.3.1 + libmatroska v1.4.2
Video
ID : 1
Format : AVC
Format/Info : Advanced Video Codec
Format profile : High@L4.1
Format settings, CABAC : Yes
Format settings, ReFrames : 11 frames
Codec ID : V_MPEG4/ISO/AVC
Duration : 1 h 48 min
Bit rate : 2 045 kb/s
Width : 716 pixels
Height : 460 pixels
Display aspect ratio : 5:3
Original display aspect rat : 5:3
Frame rate mode : Constant
Frame rate : 25.000 FPS
Color space : YUV
Chroma subsampling : 4:2:0
Bit depth : 8 bits
Scan type : Progressive
Bits/(Pixel*Frame) : 0.248
Stream size : 1.52 GiB (80%)
Title : Enigma
Writing library : x264 core 144 r2525 40bb568
Encoding settings : cabac=1 / ref=11 / deblock=1:-2:-2 / analyse=0x3:0x113 / me=umh / subme=10 / psy=1 / psy_rd=1.00:0.10 / mixed_ref=1 / me_range=32 / chroma_me=1 / trellis=2 / 8x8dct=1 / cqm=0 / deadzone=21,11 / fast_pskip=0 / chroma_qp_offset=-3 / threads=12 / lookahead_threads=3 / sliced_threads=0 / nr=0 / decimate=0 / interlaced=0 / bluray_compat=0 / constrained_intra=0 / bframes=10 / b_pyramid=2 / b_adapt=2 / b_bias=0 / direct=3 / weightb=1 / open_gop=0 / weightp=2 / keyint=250 / keyint_min=25 / scenecut=40 / intra_refresh=0 / rc=2pass / mbtree=0 / bitrate=2045 / ratetol=1.0 / qcomp=0.60 / qpmin=0 / qpmax=51 / qpstep=4 / cplxblur=20.0 / qblur=0.5 / ip_ratio=1.40 / pb_ratio=1.30 / aq=1:0.80
Language : English
Default : Yes
Forced : No
Color range : Limited
Color primaries : BT.601 PAL
Transfer characteristics : BT.470 System B, BT.470 System G
Matrix coefficients : BT.601
Audio
ID : 2
Format : AC-3
Format/Info : Audio Coding 3
Mode extension : CM (complete main)
Format settings, Endianness : Big
Codec ID : A_AC3
Duration : 1 h 48 min
Bit rate mode : Constant
Bit rate : 448 kb/s
Channel(s) : 6 channels
Channel positions : Front: L C R, Side: L R, LFE
Sampling rate : 48.0 kHz
Frame rate : 31.250 FPS (1536 spf)
Compression mode : Lossy
Stream size : 348 MiB (18%)
Language : Russian
Default : Yes
Forced : No


Релиз от:
Автор релиза:



   Похожие торренты   Торрент   Размер 
В этой теме нет новых непрочитанных сообщений. Брат за брата [01-24 из 24] (2010) DVDRip от КинозалSAT

118 | 24

12.9 ГБ

В этой теме нет новых непрочитанных сообщений. Брат за брата 2 [01-24 из 24] (2012) DVB

27 | 16

41.18 ГБ

В этой теме нет новых непрочитанных сообщений. Брат за брата [24] (2014) SATRip

347 | 63

610.27 МБ

В этой теме нет новых непрочитанных сообщений. Брат за брата [25] (2014) SATRip

374 | 61

606.7 МБ

В этой теме нет новых непрочитанных сообщений. Брат за брата [30] (2014) SATRip

113 | 32

600.4 МБ

В этой теме нет новых непрочитанных сообщений. Брат за брата [22] (2014) SATRip

244 | 29

621.04 МБ

В этой теме нет новых непрочитанных сообщений. Брат за брата [29] (2014) SATRip

107 | 4

596.3 МБ




Вы не можете начинать темы
Вы не можете отвечать на сообщения
Вы не можете редактировать свои сообщения
Вы не можете удалять свои сообщения
Вы не можете добавлять вложения

Перейти:  
Для Мосгорсуда, Роскомнадзора и рекламодателей: mosgorsud-torrent[собачка]yandex.ru
 Вход
ppkBB3cker v.2 © 2008-2014 @ PPK
[ Time : 0.044s | 15 Queries | GZIP : Off ]

Торрент трекер RUTOR.IN, Не можете зайти на rutor.org? Какой новый адрес рутор? Какое зеркало рутор? Не работает rutor.org и зеркала? Тогда наш торрент специально для вас. Rutor.in неофициальное зеркало rutor. В случае если у Вас заблокирован rutor или вдруг Вы не можете на него зайти, то Вы без труда сможете скачать бесплатно и без рекламы последние новинки кино, игр, сериалов и прочего у нас, на Rutor.in. Не нужно использовать прокси, чтобы зайти на рутор, достаточно воспользоваться нашим ресурсом. Все новые фильмы, игры, сериалы, книги и музыка за 2013 и 2014 годы через торрент бесплатно. Скачивайте фильмы в хорошем качестве, игры для пк, xbox, playstation без регистрации. У нас вы найдете новые Зарубежные сериалы и Русские сериалы 2013, 2014, 2015 годов. Оставайтесь с нами, качайте любимые фильмы, игры, сериалы, книги и музыку.