img image001 image001 image001 image001 image001 image001 image001 image001 image001 image001 image001 image001 image001 image001 image001

Planets Sun Sun Sun
Статистика раздачи
Автор: PriZraK | Размер: 746.39 МБ | Добавлен: 19 сен 2016
Раздают: 20    Качают: 2
Скачать торрент
Скачать торрент
Описание торрента

СообщениеДобавлено: 19 сен 2016 


Информация о фильме
Название: Что творят мужчины! 2
Год выхода: 2015
Жанр: Комедия
Режиссер: Сарик Андреасян
В ролях: Таир Мамедов, Роман Юнусов, Дмитрий Кожома, Никита Джигурда, Анастасия Задорожная, Пётр Винс, Вадим Цаллати, Наталья Рудова, Елена Борщёва, Елена Беркова
О фильме:
России угрожает страшная опасность! Бывший сисадмин Секретного Военного Подразделения, уехавший в Америку, запустил вирус для взлома системы безопасности, что грозит всем нам страшными последствиями. Чтобы остановить программу, нужен пароль — слово, которое произносит бывшая подружка хакера, когда испытывает оргазм. Это всего лишь одно слово, но за последний год у злодея было десяток подружек, и с каждой был секс… и все они в Лос-Анджелесе! Спасти страну призваны главные специалисты по женщинам — Даниэль, Гоша и Виталик.

Страна: Россия
Студия: Enjoy Movies
Продолжительность: 01:21:45
Перевод: Не требуется [Лицензия]
Файл
Качество: DVDRip
Кодек: XviD
Видео: 688x288 (2,40:1), 25 fps, XviD ~1139 kbps avg, 0.230 bit/pixel
Аудио: 48 kHz, MP3, 2 ch, ~128.00 kbps avg | русский
Субтитры: Отсутствуют
Общее
Полное имя : Что творят мужчины! 2.2015.O.DVDRip.745Mb.avi
Формат : AVI
Формат/Информация : Audio Video Interleave
Размер файла : 746 Мбайт
Продолжительность : 1 ч. 21 м.
Общий поток : 1276 Кбит/сек
Название фильма : Что творят мужчины! 2 (2015)
Режиссёр : by stillet
Программа кодирования : VirtualDubMod 1.5.10.3 (build 2550/release)
Библиотека кодирования : VirtualDubMod build 2550/release
Видео
Идентификатор : 0
Формат : MPEG-4 Visual
Профиль формата : Advanced Simple@L5
Параметр BVOP формата : 2
Параметр QPel формата : Нет
Параметр GMC формата : Без точки перехода
Параметр матрицы формата : Default (MPEG)
Режим смешивания : Сжатый битовый поток
Идентификатор кодека : XVID
Идентификатор кодека/Подсказка : XviD
Продолжительность : 1 ч. 21 м.
Битрейт : 1139 Кбит/сек
Ширина : 688 пикселей
Высота : 288 пикселей
Соотношение сторон : 2,40:1
Частота кадров : 25,000 кадров/сек
Цветовое пространство : YUV
Субдискретизация насыщенности : 4:2:0
Битовая глубина : 8 бит
Тип развёртки : Прогрессивная
Метод сжатия : С потерями
Бит/(Пиксели*Кадры) : 0.230
Размер потока : 666 Мбайт (89%)
Библиотека кодирования : XviD 73
Аудио
Идентификатор : 1
Формат : MPEG Audio
Версия формата : Version 1
Профиль формата : Layer 3
Режим : Joint stereo
Расширение режима : MS Stereo
Идентификатор кодека : 55
Идентификатор кодека/Подсказка : MP3
Продолжительность : 1 ч. 21 м.
Вид битрейта : Постоянный
Битрейт : 128 Кбит/сек
Каналы : 2 канала
Частота : 48,0 КГц
Метод сжатия : С потерями
Размер потока : 74,8 Мбайт (10%)
Выравнивание : Соединение по промежуткам
Продолжительность промежутка : 40 мс. (1,00 видеокадр)
Время предзагрузки промежутка : 504 мс.



   Похожие торренты   Торрент   Размер 
В этой теме нет новых непрочитанных сообщений. Что творят мужчины! 2 (2015) DVDRip | Лицензия

462 | 123

1.37 ГБ

В этой теме нет новых непрочитанных сообщений. Что творят мужчины! 2 (2015) DVDRip-AVC от ExKinoRay | Лицензия

74 | 14

744.35 МБ

В этой теме нет новых непрочитанных сообщений. Что творят мужчины! 2 (2015) DVDRip-AVC от ExKinoRay | Лицензия

62 | 25

1.46 ГБ

В этой теме нет новых непрочитанных сообщений. Что творят мужчины! 2 (2015) DVD5 | лицензия

0 | 0

4.09 ГБ

В этой теме нет новых непрочитанных сообщений. Что творят мужчины! (2013) DVDRip от Generalfilm | КПК | Лицензия

39 | 3

285.46 МБ

В этой теме нет новых непрочитанных сообщений. Что творят мужчины! (2013) BDRip 720p | Лицензия

3 | 3

3.6 ГБ

В этой теме нет новых непрочитанных сообщений. Что творят мужчины! (2013) BDRip от Youtracker | Лицензия

64 | 15

746.22 МБ




Вы не можете начинать темы
Вы не можете отвечать на сообщения
Вы не можете редактировать свои сообщения
Вы не можете удалять свои сообщения
Вы не можете добавлять вложения

Перейти:  
Для Мосгорсуда, Роскомнадзора и рекламодателей: mosgorsud-torrent[собачка]yandex.ru
 Вход
ppkBB3cker v.2 © 2008-2014 @ PPK
[ Time : 0.019s | 14 Queries | GZIP : On ]

Торрент трекер RUTOR.IN, Не можете зайти на rutor.org? Какой новый адрес рутор? Какое зеркало рутор? Не работает rutor.org и зеркала? Тогда наш торрент специально для вас. Rutor.in неофициальное зеркало rutor. В случае если у Вас заблокирован rutor или вдруг Вы не можете на него зайти, то Вы без труда сможете скачать бесплатно и без рекламы последние новинки кино, игр, сериалов и прочего у нас, на Rutor.in. Не нужно использовать прокси, чтобы зайти на рутор, достаточно воспользоваться нашим ресурсом. Все новые фильмы, игры, сериалы, книги и музыка за 2013 и 2014 годы через торрент бесплатно. Скачивайте фильмы в хорошем качестве, игры для пк, xbox, playstation без регистрации. У нас вы найдете новые Зарубежные сериалы и Русские сериалы 2013, 2014, 2015 годов. Оставайтесь с нами, качайте любимые фильмы, игры, сериалы, книги и музыку.