img image001 image001 image001 image001 image001 image001 image001 image001 image001 image001 image001 image001 image001 image001 image001

Planets Sun Sun Sun
Статистика раздачи
Автор: PriZraK | Размер: 1.3 ГБ | Добавлен: 21 сен 2016
Раздают: 320    Качают: 14
Скачать торрент
Скачать торрент
Описание торрента

СообщениеДобавлено: 21 сен 2016 


Информация о фильме
Оригинальное название: Диггеры
Год выпуска: 2016
Жанр: Ужасы
Выпущено: Россия, Горад
Режиссер: Тихон Корнев
В ролях: Роман Евдокимов, Анна Васильева, Алёна Савастова, Владимир Кузнецов, Андрей Лёвин, Мария Щекатурова, Евгений Коряковский, Дин Фан, Кирилл Кобзарев, Валерия Шкирандо
О фильме: Ночное метро. Несколько минут до закрытия. Последний поезд на полном ходу пролетает мимо конечной станции, увозя в темноту туннеля ничего не понимающих пассажиров. Официальные власти засекречивают информацию о бесследно исчезнувших людях. Через несколько дней, на поиски пропавших отправляются их друзья. Им предстоит вспомнить все жуткие городские легенды, которыми окутано московское подземелье…. И узнать, что реальность может быть намного страшнее…

Файл
Качество: WEB-DLRip (AVC)
Видео: MPEG-4 AVC, 1963 Кбит/с, 1024x428, 24 кадр/с
Аудио: AC3, 6 ch, 384 Кбит/с
Размер: 1.30 ГБ
Продолжительность: 01:19:19
Язык: Русский
Сохранены оригинальные чаптеры как на исходном WEB-DL.
Озвучивание - (iTunes Russia)
x264 [info]: frame I:756 Avg QP:14.01 size: 61687
x264 [info]: frame P:28469 Avg QP:16.70 size: 20883
x264 [info]: frame B:85002 Avg QP:18.24 size: 6127
x264 [info]: consecutive B-frames: 2.5% 3.8% 5.5% 54.4% 11.7% 16.1% 3.6% 1.3% 0.4% 0.3% 0.6%
x264 [info]: mb I I16..4: 12.5% 70.8% 16.8%
x264 [info]: mb P I16..4: 0.7% 9.3% 1.0% P16..4: 29.4% 38.3% 14.5% 2.1% 0.1% skip: 4.5%
x264 [info]: mb B I16..4: 0.1% 0.6% 0.1% B16..8: 35.3% 22.8% 3.8% direct: 7.0% skip:30.2% L0:40.5% L1:47.8% BI:11.7%
x264 [info]: 8x8 transform intra:79.8% inter:55.6%
x264 [info]: direct mvs spatial:96.5% temporal:3.5%
x264 [info]: coded y,uvDC,uvAC intra: 90.0% 87.7% 72.5% inter: 23.0% 33.7% 16.5%
x264 [info]: i16 v,h,dc,p: 29% 18% 15% 37%
x264 [info]: i8 v,h,dc,ddl,ddr,vr,hd,vl,hu: 9% 8% 9% 10% 13% 12% 13% 12% 14%
x264 [info]: i4 v,h,dc,ddl,ddr,vr,hd,vl,hu: 11% 17% 5% 8% 13% 12% 12% 10% 12%
x264 [info]: i8c dc,h,v,p: 47% 23% 16% 15%
x264 [info]: Weighted P-Frames: Y:9.0% UV:6.0%
x264 [info]: ref P L0: 49.2% 7.1% 17.9% 6.1% 5.6% 3.8% 3.8% 2.1% 2.2% 1.8% 0.4% 0.0%
x264 [info]: ref B L0: 77.0% 11.0% 4.1% 2.4% 1.7% 1.6% 1.2% 0.6% 0.3%
x264 [info]: ref B L1: 95.0% 5.0%
x264 [info]: kb/s:1953.066

Общее
Уникальный идентификатор : 209784944729085420386271597596382443713 (0x9DD31C56695FEEB483F1AEE9EE81B8C1)
Полное имя : D:ЗагрузкиDiggeri.2016.x264.WEB-DLRip.AVC.ExKinoRay.mkv
Формат : Matroska
Версия формата : Version 2
Размер файла : 1,30 Гбайт
Продолжительность : 1 ч. 19 м.
Общий поток : 2339 Кбит/сек
Название фильма : Диггеры.2016.Rip by: ollan
Дата кодирования : UTC 2016-09-19 11:43:06
Программа кодирования : mkvmerge v5.6.0 ('Kenya Kane') built on May 27 2012 16:44:04
Библиотека кодирования : libebml v1.2.3 + libmatroska v1.3.0
Attachements : Cover - Diggeri.png
Видео
Идентификатор : 1
Формат : AVC
Формат/Информация : Advanced Video Codec
Профиль формата : High@L4.1
Параметр CABAC формата : Да
Параметр ReFrames формата : 10 кадров
Идентификатор кодека : V_MPEG4/ISO/AVC
Продолжительность : 1 ч. 19 м.
Битрейт : 1954 Кбит/сек
Ширина : 1024 пикселя
Высота : 428 пикселей
Соотношение сторон : 2,40:1
Режим частоты кадров : Постоянный
Частота кадров : 24,000 кадра/сек
Цветовое пространство : YUV
Субдискретизация насыщенности : 4:2:0
Битовая глубина : 8 бит
Тип развёртки : Прогрессивная
Бит/(Пиксели*Кадры) : 0.186
Размер потока : 1,06 Гбайт (82%)
Библиотека кодирования : x264 core 146 r2538 121396c
Настройки программы : cabac=1 / ref=10 / deblock=1:-3:-3 / analyse=0x3:0x133 / me=umh / subme=11 / psy=1 / psy_rd=1.03:0.07 / mixed_ref=1 / me_range=48 / chroma_me=1 / trellis=2 / 8x8dct=1 / cqm=0 / deadzone=21,11 / fast_pskip=0 / chroma_qp_offset=-3 / threads=12 / lookahead_threads=3 / sliced_threads=0 / nr=0 / decimate=0 / interlaced=0 / bluray_compat=0 / constrained_intra=0 / bframes=10 / b_pyramid=2 / b_adapt=2 / b_bias=0 / direct=3 / weightb=1 / open_gop=0 / weightp=2 / keyint=240 / keyint_min=23 / scenecut=40 / intra_refresh=0 / rc_lookahead=40 / rc=2pass / mbtree=0 / bitrate=1954 / ratetol=1.0 / qcomp=0.60 / qpmin=0 / qpmax=69 / qpstep=4 / cplxblur=20.0 / qblur=0.5 / vbv_maxrate=50000 / vbv_bufsize=62500 / nal_hrd=none / filler=0 / ip_ratio=1.40 / pb_ratio=1.30 / aq=1:1.00
Язык : Russian
Default : Да
Forced : Нет
Аудио
Идентификатор : 2
Формат : AC-3
Формат/Информация : Audio Coding 3
Расширение режима : CM (complete main)
Параметр Endianness формата : Big
Идентификатор кодека : A_AC3
Продолжительность : 1 ч. 19 м.
Вид битрейта : Постоянный
Битрейт : 384 Кбит/сек
Каналы : 6 каналов
Расположение каналов : Front: L C R, Side: L R, LFE
Частота : 48,0 КГц
Частота кадров : 31,250 кадров/сек (1536 spf)
Метод сжатия : С потерями
Размер потока : 218 Мбайт (16%)
Заголовок : iTunes Russia
Язык : Russian
Default : Да
Forced : Нет
Меню
00:00:00.000 : ru:Chapter 01
00:06:53.291 : ru:Chapter 02
00:12:13.332 : ru:Chapter 03
00:19:48.915 : ru:Chapter 04
00:25:08.623 : ru:Chapter 05
00:30:40.789 : ru:Chapter 06
00:36:21.039 : ru:Chapter 07
00:41:57.289 : ru:Chapter 08
00:46:59.039 : ru:Chapter 09
00:53:00.414 : ru:Chapter 10
00:59:41.789 : ru:Chapter 11
01:04:44.747 : ru:Chapter 12
01:09:34.830 : ru:Chapter 13
01:14:49.871 : ru:Chapter 14





Релиз от: Rip by:



   Похожие торренты   Торрент   Размер 
В этой теме нет новых непрочитанных сообщений. Диггеры (2016) WEB-DLRip от ExKinoRay | iTunes Russia

363 | 120

1.45 ГБ

В этой теме нет новых непрочитанных сообщений. Диггеры (2016) WEB-DLRip-AVC | iTunes Russia

79 | 11

698.17 МБ

В этой теме нет новых непрочитанных сообщений. Диггеры (2016) WEB-DLRip | iTunes

5359 | 823

1.36 ГБ

В этой теме нет новых непрочитанных сообщений. Диггеры (2016) WEB-DLRip от ImperiaFilm | КПК | iTunes

33 | 5

356.85 МБ

В этой теме нет новых непрочитанных сообщений. Диггеры (2016) WEB-DLRip 720p | iTunes

722 | 147

2.5 ГБ

В этой теме нет новых непрочитанных сообщений. Диггеры (2016) WEB-DLRip-AVC от KinoHitHD | iTunes

0 | 0

1.07 ГБ

В этой теме нет новых непрочитанных сообщений. Диггеры (2016) WEB-DLRip от GeneralFilm | iTunes

1040 | 284

1.36 ГБ




Вы не можете начинать темы
Вы не можете отвечать на сообщения
Вы не можете редактировать свои сообщения
Вы не можете удалять свои сообщения
Вы не можете добавлять вложения

Перейти:  
Для Мосгорсуда, Роскомнадзора и рекламодателей: mosgorsud-torrent[собачка]yandex.ru
 Вход
ppkBB3cker v.2 © 2008-2014 @ PPK
[ Time : 0.029s | 15 Queries | GZIP : Off ]

Торрент трекер RUTOR.IN, Не можете зайти на rutor.org? Какой новый адрес рутор? Какое зеркало рутор? Не работает rutor.org и зеркала? Тогда наш торрент специально для вас. Rutor.in неофициальное зеркало rutor. В случае если у Вас заблокирован rutor или вдруг Вы не можете на него зайти, то Вы без труда сможете скачать бесплатно и без рекламы последние новинки кино, игр, сериалов и прочего у нас, на Rutor.in. Не нужно использовать прокси, чтобы зайти на рутор, достаточно воспользоваться нашим ресурсом. Все новые фильмы, игры, сериалы, книги и музыка за 2013 и 2014 годы через торрент бесплатно. Скачивайте фильмы в хорошем качестве, игры для пк, xbox, playstation без регистрации. У нас вы найдете новые Зарубежные сериалы и Русские сериалы 2013, 2014, 2015 годов. Оставайтесь с нами, качайте любимые фильмы, игры, сериалы, книги и музыку.
cron