img image001 image001 image001 image001 image001 image001 image001 image001 image001 image001 image001 image001 image001 image001 image001

Planets Sun Sun Sun
Статистика раздачи
Автор: PriZraK | Размер: 1.36 ГБ | Добавлен: 21 сен 2016
Раздают: 1139    Качают: 289
Скачать торрент
Скачать торрент
Описание торрента

СообщениеДобавлено: 21 сен 2016 


Информация о фильме
Название: Диггеры
Год выпуска: 2016
Жанр: Ужасы
Режиссеры: Тихон Корнев
В ролях: Роман Евдокимов, Анна Васильева, Алёна Савастова, Владимир Кузнецов, Андрей Лёвин, Мария Щекатурова, Евгений Коряковский, Дин Фан, Кирилл Кобзарев, Валерия Шкирандо
О фильме:
Ночное метро. Несколько минут до закрытия. Последний поезд на полном ходу пролетает мимо конечной станции, увозя в темноту туннеля ничего не понимающих пассажиров. Официальные власти засекречивают информацию о бесследно исчезнувших людях. Через несколько дней, на поиски пропавших отправляются их друзья. Им предстоит вспомнить все жуткие городские легенды, которыми окутано московское подземелье…. И узнать, что реальность может быть намного страшнее…

Страна: Россия
Студия: Продюссерский центр «ГОРАД»
Продолжительность: 01:19:19
Перевод: Не требуется (русский) | iTunes
Файл
Формат: AVI
Качество: WEB-DLRip
Видео: XviD build 73, 720x304 (2.35:1), 24.000 fps, 2062 Kbps (0.393 bit/pixel)
Звук: 48.0 kHz, AC3 Dolby Digital, 5/1 (L C R, Side: L R, LFE) ch, 384 kbps
General
Complete name : Diggery.2016.XviD.WEB-DLRip.by.GeneralFilm.avi
Format : AVI
Format/Info : Audio Video Interleave
File size : 1.36 GiB
Duration : 1h 19mn
Overall bit rate : 2 455 Kbps
Writing application : VirtualDubMod 1.5.10.3 | www.virtualdub-fr.org || (build 2550/release)
Writing library : VirtualDubMod build 2550/release
Video
ID : 0
Format : MPEG-4 Visual
Format profile : Advanced Simple@L5
Format settings, BVOP : 1
Format settings, QPel : No
Format settings, GMC : No warppoints
Format settings, Matrix : Custom
Codec ID : XVID
Codec ID/Hint : XviD
Duration : 1h 19mn
Bit rate : 2 062 Kbps
Width : 720 pixels
Height : 304 pixels
Display aspect ratio : 2.35:1
Frame rate : 24.000 fps
Color space : YUV
Chroma subsampling : 4:2:0
Bit depth : 8 bits
Scan type : Progressive
Compression mode : Lossy
Bits/(Pixel*Frame) : 0.393
Stream size : 1.14 GiB (84%)
Writing library : XviD 73
Audio
ID : 1
Format : AC-3
Format/Info : Audio Coding 3
Mode extension : CM (complete main)
Format settings, Endianness : Big
Codec ID : 2000
Duration : 1h 19mn
Bit rate mode : Constant
Bit rate : 384 Kbps
Channel(s) : 6 channels
Channel positions : Front: L C R, Side: L R, LFE
Sampling rate : 48.0 KHz
Frame rate : 31.250 fps (1536 spf)
Compression mode : Lossy
Stream size : 218 MiB (16%)
Alignment : Split accross interleaves
Interleave, duration : 42 ms (1.00 video frame)
Interleave, preload duratio : 500 ms




Релиз от:



   Похожие торренты   Торрент   Размер 
В этой теме нет новых непрочитанных сообщений. Диггеры (2016) WEB-DLRip | iTunes

5359 | 823

1.36 ГБ

В этой теме нет новых непрочитанных сообщений. Диггеры (2016) WEB-DLRip-AVC | iTunes Russia

88 | 12

698.17 МБ

В этой теме нет новых непрочитанных сообщений. Диггеры (2016) WEB-DLRip от ImperiaFilm | КПК | iTunes

33 | 5

356.85 МБ

В этой теме нет новых непрочитанных сообщений. Диггеры (2016) WEB-DLRip от MegaPeer | iTunes

242 | 50

744.16 МБ

В этой теме нет новых непрочитанных сообщений. Диггеры (2016) WEB-DLRip 720p | iTunes

722 | 147

2.5 ГБ

В этой теме нет новых непрочитанных сообщений. Диггеры (2016) WEB-DLRip-AVC от KinoHitHD | iTunes

0 | 0

1.07 ГБ

В этой теме нет новых непрочитанных сообщений. Диггеры (2016) WEB-DLRip от ExKinoRay | iTunes Russia

335 | 118

1.45 ГБ




Вы не можете начинать темы
Вы не можете отвечать на сообщения
Вы не можете редактировать свои сообщения
Вы не можете удалять свои сообщения
Вы не можете добавлять вложения

Перейти:  
Для Мосгорсуда, Роскомнадзора и рекламодателей: mosgorsud-torrent[собачка]yandex.ru
 Вход
ppkBB3cker v.2 © 2008-2014 @ PPK
[ Time : 0.050s | 14 Queries | GZIP : On ]

Торрент трекер RUTOR.IN, Не можете зайти на rutor.org? Какой новый адрес рутор? Какое зеркало рутор? Не работает rutor.org и зеркала? Тогда наш торрент специально для вас. Rutor.in неофициальное зеркало rutor. В случае если у Вас заблокирован rutor или вдруг Вы не можете на него зайти, то Вы без труда сможете скачать бесплатно и без рекламы последние новинки кино, игр, сериалов и прочего у нас, на Rutor.in. Не нужно использовать прокси, чтобы зайти на рутор, достаточно воспользоваться нашим ресурсом. Все новые фильмы, игры, сериалы, книги и музыка за 2013 и 2014 годы через торрент бесплатно. Скачивайте фильмы в хорошем качестве, игры для пк, xbox, playstation без регистрации. У нас вы найдете новые Зарубежные сериалы и Русские сериалы 2013, 2014, 2015 годов. Оставайтесь с нами, качайте любимые фильмы, игры, сериалы, книги и музыку.