img image001 image001 image001 image001 image001 image001 image001 image001 image001 image001 image001 image001 image001 image001 image001

Planets Sun Sun Sun
Статистика раздачи
Автор: PriZraK | Размер: 744.35 МБ | Добавлен: 21 сен 2016
Раздают: 74    Качают: 14
Скачать торрент
Скачать торрент
Описание торрента

СообщениеДобавлено: 21 сен 2016 

Информация о фильме
Название: Что творят мужчины! 2
Год выхода: 2015
Жанр: Комедия
Режиссер: Сарик Андреасян
В ролях: Таир Мамедов, Роман Юнусов, Дмитрий Кожома, Никита Джигурда, Анастасия Задорожная, Пётр Винс, Вадим Цаллати, Наталья Рудова, Елена Борщёва, Елена Беркова
О фильме:
России угрожает страшная опасность! Бывший сисадмин Секретного Военного Подразделения, уехавший в Америку, запустил вирус для взлома системы безопасности, что грозит всем нам страшными последствиями. Чтобы остановить программу, нужен пароль — слово, которое произносит бывшая подружка хакера, когда испытывает оргазм. Это всего лишь одно слово, но за последний год у злодея было десяток подружек, и с каждой был секс… и все они в Лос-Анджелесе! Спасти страну призваны главные специалисты по женщинам — Даниэль, Гоша и Виталик.

Страна: Россия
Студия: Enjoy Movies
Продолжительность: 01:21:45
Перевод: Не требуется [Лицензия]
Файл
Кодек: х264
Качество: DVDRip-AVC
Видео: 704x300 (2,35:1), 25,000 fps, х264 ~ 1080 kbps avg, 0.205 bit/pixel
Аудио: 48,0 kHz, Audio Coding 3, 2 ch, ~192 kbps avg
Общее
Уникальный идентификатор : 175194017367715966048711514463992073087 (0x83CD23F2147D0FD9A282820B944CCB7F)
Полное имя : D:ВидеоЧТО ТВОРЯТ МУЖЧИНЫ 2.DVDRip-AVC 745 by Vovan366(ExKinoRay).mkv.mkv
Формат : Matroska
Версия формата : Version 2
Размер файла : 744 Мбайт
Продолжительность : 1 ч. 21 м.
Общий поток : 1273 Кбит/сек
Дата кодирования : UTC 2016-09-20 06:41:22
Программа кодирования : mkvmerge v7.8.0 ('River Man') 32bit built on Apr 3 2015 12:11:22
Библиотека кодирования : libebml v1.3.1 + libmatroska v1.4.2
Видео
Идентификатор : 1
Формат : AVC
Формат/Информация : Advanced Video Codec
Профиль формата : High@L4.1
Параметр CABAC формата : Да
Параметр ReFrames формата : 10 кадров
Идентификатор кодека : V_MPEG4/ISO/AVC
Продолжительность : 1 ч. 21 м.
Битрейт : 1080 Кбит/сек
Ширина : 704 пикселя
Высота : 300 пикселей
Соотношение сторон : 2,35:1
Режим частоты кадров : Постоянный
Частота кадров : 25,000 кадров/сек
Цветовое пространство : YUV
Субдискретизация насыщенности : 4:2:0
Битовая глубина : 8 бит
Тип развёртки : Прогрессивная
Бит/(Пиксели*Кадры) : 0.205
Размер потока : 617 Мбайт (83%)
Библиотека кодирования : x264 core 146 r2538 121396c
Настройки программы : cabac=1 / ref=10 / deblock=1:-3:-3 / analyse=0x3:0x113 / me=umh / subme=10 / psy=1 / psy_rd=1.00:0.05 / mixed_ref=1 / me_range=32 / chroma_me=1 / trellis=2 / 8x8dct=1 / cqm=0 / deadzone=21,11 / fast_pskip=0 / chroma_qp_offset=-3 / threads=6 / lookahead_threads=1 / sliced_threads=0 / nr=0 / decimate=0 / interlaced=0 / bluray_compat=0 / constrained_intra=0 / bframes=10 / b_pyramid=2 / b_adapt=2 / b_bias=0 / direct=3 / weightb=1 / open_gop=0 / weightp=2 / keyint=250 / keyint_min=25 / scenecut=40 / intra_refresh=0 / rc_lookahead=40 / rc=2pass / mbtree=0 / bitrate=1080 / ratetol=1.0 / qcomp=0.60 / qpmin=0 / qpmax=69 / qpstep=4 / cplxblur=20.0 / qblur=0.5 / vbv_maxrate=14000 / vbv_bufsize=14000 / nal_hrd=none / filler=0 / ip_ratio=1.40 / pb_ratio=1.30 / aq=1:1.00
Default : Да
Forced : Нет
Аудио
Идентификатор : 2
Формат : AC-3
Формат/Информация : Audio Coding 3
Расширение режима : CM (complete main)
Параметр Endianness формата : Big
Идентификатор кодека : A_AC3
Продолжительность : 1 ч. 21 м.
Вид битрейта : Постоянный
Битрейт : 192 Кбит/сек
Каналы : 2 канала
Расположение каналов : Front: L R
Частота : 48,0 КГц
Битовая глубина : 16 бит
Метод сжатия : С потерями
Размер потока : 112 Мбайт (15%)
Default : Да
Forced : Нет



Релиз от:
Rip by: Vovan366



   Похожие торренты   Торрент   Размер 
В этой теме нет новых непрочитанных сообщений. Что творят мужчины! 2 (2015) DVDRip-AVC от ExKinoRay | Лицензия

62 | 25

1.46 ГБ

В этой теме нет новых непрочитанных сообщений. Что творят мужчины! 2 (2015) DVDRip | Лицензия

462 | 123

1.37 ГБ

В этой теме нет новых непрочитанных сообщений. Что творят мужчины! 2 (2015) DVDRip | Лицензия

20 | 2

746.39 МБ

В этой теме нет новых непрочитанных сообщений. Что творят мужчины! 2 (2015) WEB-DLRip-AVC от ExKinoRay | iTunes

1531 | 84

1.46 ГБ

В этой теме нет новых непрочитанных сообщений. Что творят мужчины! 2 (2015) DVD5 | лицензия

0 | 0

4.09 ГБ

В этой теме нет новых непрочитанных сообщений. Что творят мужчины! (2013) DVDRip от Generalfilm | КПК | Лицензия

39 | 3

285.46 МБ

В этой теме нет новых непрочитанных сообщений. Что творят мужчины! (2013) BDRip 720p | Лицензия

479 | 17

2.18 ГБ




Вы не можете начинать темы
Вы не можете отвечать на сообщения
Вы не можете редактировать свои сообщения
Вы не можете удалять свои сообщения
Вы не можете добавлять вложения

Перейти:  
Для Мосгорсуда, Роскомнадзора и рекламодателей: mosgorsud-torrent[собачка]yandex.ru
 Вход
ppkBB3cker v.2 © 2008-2014 @ PPK
[ Time : 0.028s | 14 Queries | GZIP : Off ]
CGP output time : 0.051s | 5 Queries | GZIP : Off

Торрент трекер RUTOR.IN, Не можете зайти на rutor.org? Какой новый адрес рутор? Какое зеркало рутор? Не работает rutor.org и зеркала? Тогда наш торрент специально для вас. Rutor.in неофициальное зеркало rutor. В случае если у Вас заблокирован rutor или вдруг Вы не можете на него зайти, то Вы без труда сможете скачать бесплатно и без рекламы последние новинки кино, игр, сериалов и прочего у нас, на Rutor.in. Не нужно использовать прокси, чтобы зайти на рутор, достаточно воспользоваться нашим ресурсом. Все новые фильмы, игры, сериалы, книги и музыка за 2013 и 2014 годы через торрент бесплатно. Скачивайте фильмы в хорошем качестве, игры для пк, xbox, playstation без регистрации. У нас вы найдете новые Зарубежные сериалы и Русские сериалы 2013, 2014, 2015 годов. Оставайтесь с нами, качайте любимые фильмы, игры, сериалы, книги и музыку.