img image001 image001 image001 image001 image001 image001 image001 image001 image001 image001 image001 image001 image001 image001 image001

Planets Sun Sun Sun
Статистика раздачи
Автор: PriZraK | Размер: 1.92 ГБ | Добавлен: 21 сен 2016
Раздают: 8184    Качают: 785
Скачать торрент
Скачать торрент
Описание торрента

СообщениеДобавлено: 21 сен 2016 


Информация о фильме
Название: Всё о мужчинах
Год выхода: 2016
Жанр: Комедия
Режиссер: Михаил Жерневский, Леонид Марголин
В ролях: Дмитрий Нагиев, Анна Хилькевич, Игорь Верник, Сергей Белоголовцев, Грант Тохатян, Владимир Епифанцев, Екатерина Скулкина, Елена Борщева, Виктор Степанян, Ян Цапник
О фильме:
Это история о том, какими разными могут быть мужчины. О том, что мужчины — это, в первую очередь, сложные решения и настоящие поступки. О том, в чем мужчины могут быть сильны, а в чем комичны. О том, за что их можно и нужно любить...
Страна: Россия
Студия: Enjoy Movies, Fresh Film
Продолжительность: 01:18:52
Перевод: Не требуется [KartinaTV]
Файл
Кодек: h.264
Качество: WEB-DL 1080p
Видео: MPEG-4 AVC, 3363 Кбит/с, 1920x1080, 24.000 кадр/с
Звук: Русский (AAC, 2 ch, 125 Кбит/с)
Семпл
Автор релиза - Silverok, первоисточник - KartinaTV

General
Unique ID : 218986795834211877953080608668955365005 (0xA4BF529FE44030B593806FAE574ACE8D)
Complete name : D:uTorrentVsje.o.muzhcinah.2016.WEB-DL.1080p.MediaClub.mkv
Format : Matroska
Format version : Version 4 / Version 2
File size : 1.92 GiB
Duration : 1 h 18 min
Overall bit rate : 3 490 kb/s
Encoded date : UTC 2016-09-20 15:02:53
Writing application : mkvmerge v9.4.2 ('So High') 64bit
Writing library : libebml v1.3.4 + libmatroska v1.4.5
Video
ID : 1
Format : AVC
Format/Info : Advanced Video Codec
Format profile : High@L4
Format settings, CABAC : Yes
Format settings, ReFrames : 3 frames
Codec ID : V_MPEG4/ISO/AVC
Duration : 1 h 18 min
Bit rate : 3 363 kb/s
Width : 1 920 pixels
Height : 1 080 pixels
Display aspect ratio : 16:9
Frame rate mode : Constant
Frame rate : 24.000 FPS
Color space : YUV
Chroma subsampling : 4:2:0
Bit depth : 8 bits
Scan type : Progressive
Bits/(Pixel*Frame) : 0.068
Stream size : 1.85 GiB (96%)
Language : Russian
Default : Yes
Forced : No
Audio
ID : 2
Format : AAC
Format/Info : Advanced Audio Codec
Format profile : LC
Codec ID : A_AAC
Duration : 1 h 18 min
Bit rate : 125 kb/s
Channel(s) : 2 channels
Channel positions : Front: L R
Sampling rate : 48.0 kHz
Frame rate : 46.875 FPS (1024 spf)
Compression mode : Lossy
Stream size : 70.7 MiB (4%)
Language : Russian
Default : Yes
Forced : No


Релиз от: | Silverok



   Похожие торренты   Торрент   Размер 
В этой теме нет новых непрочитанных сообщений. Всё о мужчинах (2016) WEB-DLRip от GeneralFilm | KartinaTV

917 | 296

742.38 МБ

В этой теме нет новых непрочитанных сообщений. Всё о мужчинах (2016) WEB-DLRip от ExKinoRay | KartinaTV

830 | 191

1.46 ГБ

В этой теме нет новых непрочитанных сообщений. Всё о мужчинах (2016) WEB-DL 1080p | iTunes

26 | 0

2.74 ГБ

В этой теме нет новых непрочитанных сообщений. Всё о мужчинах (2016) BDRip 1080p | Лицензия

19 | 0

7.67 ГБ

В этой теме нет новых непрочитанных сообщений. Все о мужчинах (2016) BDRip 1080p | Лицензия

40 | 0

9.44 ГБ

В этой теме нет новых непрочитанных сообщений. Всё о мужчинах (2016) WEB-DLRip

9498 | 1300

1.37 ГБ

В этой теме нет новых непрочитанных сообщений. Все о мужчинах (2016) Blu-Ray | Лицензия

5 | 0

19 ГБ




Вы не можете начинать темы
Вы не можете отвечать на сообщения
Вы не можете редактировать свои сообщения
Вы не можете удалять свои сообщения
Вы не можете добавлять вложения

Перейти:  
Для Мосгорсуда, Роскомнадзора и рекламодателей: mosgorsud-torrent[собачка]yandex.ru
 Вход
ppkBB3cker v.2 © 2008-2014 @ PPK
[ Time : 1.204s | 15 Queries | GZIP : Off ]

cron