img image001 image001 image001 image001 image001 image001 image001 image001 image001 image001 image001 image001 image001 image001 image001

Planets Sun Sun Sun
Статистика раздачи
Автор: PriZraK | Размер: 742.38 МБ | Добавлен: 21 сен 2016
Раздают: 921    Качают: 296
Скачать торрент
Скачать торрент
Описание торрента

СообщениеДобавлено: 21 сен 2016 


Информация о фильме
Название: Всё о мужчинах
Год выпуска: 2016
Жанр: Комедия
Режиссеры: Михаил Жерневский, Леонид Марголин
В ролях: Дмитрий Нагиев, Анна Хилькевич, Игорь Верник, Сергей Белоголовцев, Грант Тохатян, Владимир Епифанцев, Екатерина Скулкина, Елена Борщева, Виктор Степанян, Ян Цапник
О фильме:
Это история о том, какими разными могут быть мужчины. О том, что мужчины — это, в первую очередь, сложные решения и настоящие поступки. О том, в чем мужчины могут быть сильны, а в чем комичны. О том, за что их можно и нужно любить...

Страна: Россия
Студия: Enjoy Movies, Fresh Film
Продолжительность: 01:18:52
Перевод: Не требуется (русский) | KartinaTV
Файл
Формат: AVI
Качество: WEB-DLRip
Видео: XviD build 73, 688x288 (2.40:1), 24.000 fps, 1179 Kbps (0.248 bit/pixel)
Звук: 48.0 kHz, MP3, 2 ch, 128 kbps
General
Complete name : Vse.O.Muzhchinah.2016.XviD.WEB-DLRip.by.GeneralFilm.avi
Format : AVI
Format/Info : Audio Video Interleave
File size : 742 MiB
Duration : 1h 18mn
Overall bit rate : 1 316 Kbps
Writing application : VirtualDubMod 1.5.10.3 | www.virtualdub-fr.org || (build 2550/release)
Writing library : VirtualDubMod build 2550/release
Video
ID : 0
Format : MPEG-4 Visual
Format profile : Advanced Simple@L5
Format settings, BVOP : 1
Format settings, QPel : No
Format settings, GMC : No warppoints
Format settings, Matrix : Custom
Codec ID : XVID
Codec ID/Hint : XviD
Duration : 1h 18mn
Bit rate : 1 179 Kbps
Width : 688 pixels
Height : 288 pixels
Display aspect ratio : 2.40:1
Frame rate : 24.000 fps
Color space : YUV
Chroma subsampling : 4:2:0
Bit depth : 8 bits
Scan type : Progressive
Compression mode : Lossy
Bits/(Pixel*Frame) : 0.248
Stream size : 665 MiB (90%)
Writing library : XviD 73
Audio
ID : 1
Format : MPEG Audio
Format version : Version 1
Format profile : Layer 3
Codec ID : 55
Codec ID/Hint : MP3
Duration : 1h 18mn
Bit rate mode : Constant
Bit rate : 128 Kbps
Channel(s) : 2 channels
Sampling rate : 48.0 KHz
Compression mode : Lossy
Stream size : 72.2 MiB (10%)
Alignment : Aligned on interleaves
Interleave, duration : 42 ms (1.00 video frame)
Interleave, preload duratio : 504 ms
Writing library : LAME3.99r
Encoding settings : -m s -V 4 -q 0 -lowpass 17 -b 128




Релиз от:



   Похожие торренты   Торрент   Размер 
В этой теме нет новых непрочитанных сообщений. Всё о мужчинах (2016) WEB-DLRip от ExKinoRay | KartinaTV

829 | 191

1.46 ГБ

В этой теме нет новых непрочитанных сообщений. Всё о мужчинах (2016) WEB-DL 1080p от MediaClub | KartinaTV

8199 | 785

1.92 ГБ

В этой теме нет новых непрочитанных сообщений. Всё о мужчинах (2016) WEB-DLRip от GeneralFilm | iTunes

17 | 0

743.83 МБ

В этой теме нет новых непрочитанных сообщений. Всё о мужчинах (2016) BDRip от GeneralFilm | Лицензия

8 | 2

742.83 МБ

В этой теме нет новых непрочитанных сообщений. Всё о мужчинах (2016) BDRip от GeneralFilm | Лицензия

22 | 0

1.45 ГБ

В этой теме нет новых непрочитанных сообщений. Всё о мужчинах (2016) WEB-DLRip

9498 | 1300

1.37 ГБ

В этой теме нет новых непрочитанных сообщений. Всё о мужчинах (2016) WEB-DLRip-AVC

947 | 142

1.59 ГБ




Вы не можете начинать темы
Вы не можете отвечать на сообщения
Вы не можете редактировать свои сообщения
Вы не можете удалять свои сообщения
Вы не можете добавлять вложения

Перейти:  
Для Мосгорсуда, Роскомнадзора и рекламодателей: mosgorsud-torrent[собачка]yandex.ru
 Вход
ppkBB3cker v.2 © 2008-2014 @ PPK
[ Time : 0.031s | 16 Queries | GZIP : Off ]

Торрент трекер RUTOR.IN, Не можете зайти на rutor.org? Какой новый адрес рутор? Какое зеркало рутор? Не работает rutor.org и зеркала? Тогда наш торрент специально для вас. Rutor.in неофициальное зеркало rutor. В случае если у Вас заблокирован rutor или вдруг Вы не можете на него зайти, то Вы без труда сможете скачать бесплатно и без рекламы последние новинки кино, игр, сериалов и прочего у нас, на Rutor.in. Не нужно использовать прокси, чтобы зайти на рутор, достаточно воспользоваться нашим ресурсом. Все новые фильмы, игры, сериалы, книги и музыка за 2013 и 2014 годы через торрент бесплатно. Скачивайте фильмы в хорошем качестве, игры для пк, xbox, playstation без регистрации. У нас вы найдете новые Зарубежные сериалы и Русские сериалы 2013, 2014, 2015 годов. Оставайтесь с нами, качайте любимые фильмы, игры, сериалы, книги и музыку.
cron