img image001 image001 image001 image001 image001 image001 image001 image001 image001 image001 image001 image001 image001 image001 image001

Planets Sun Sun Sun
Статистика раздачи
Автор: PriZraK | Размер: 4.37 ГБ | Добавлен: 23 сен 2016
Раздают: 24    Качают: 13
Скачать торрент
Скачать торрент
Описание торрента

СообщениеДобавлено: 23 сен 2016 



Информация о фильме
Название: Пятница
Год выхода: 2016
Жанр: комедия
Режиссер: Евгений Шелякин
В ролях: Данила Козловский, Сергей Бурунов, Настасья Самбурская, Катерина Шпица, Павел Деревянко, Кирилл Плетнёв, Евгения Брик, Антон Шагин, Ян Цапник, Евгений Стычкин

О фильме:
Что если азартный миллионер на одну ночь станет официантом, офисный лузер будет звездой самой яркой вечеринки, а двум «заклятым» друзьям придется искать кенгуру ночью в подмосковном лесу? У каждого своя пятница! Как она закончится для каждого, знает только утро субботы ;)



Страна: Россия
Студия: RSS Production
Продолжительность: 83 мин. / 01:23
Перевод: не требуется

Файл
Кодек: MPEG2
Качество: DVD5 (сжатый)
Видео: PAL 16:9 (720x576@1024x576) VBR 7081 Kbps, 25.000 fps
Аудио: Dolby AC3, 6 ch, 48.0 KHz, 448 Kbps
Субтитры: отсутствуют

Исходник: Пятница (2016) DVD9 | лицензия
Удалены: предупреждающая надпись, анонсы (в меню кнопки затерты). Команды диска переписаны заново, оставлены два VTS.
Видео сжато на 5%
Меню: статичное, недействующие кнопки затерты и закрыты.
Обработка и сжатие: DVD ReMake Pro + DVD Rebuilder + CCE SP2 [7 проходов] + Работа с меню (Adobe PhotoShop и MuxMan).
Автор релиза: J9-1000
Общее
Полное имя : D:Пятница (2016) DVD5VIDEO_TSVTS_02_2.VOB
Формат : MPEG-PS
Размер файла : 1024 Мбайт
Продолжительность : 18 м.
Режим общего битрейта : Переменный
Общий поток : 7682 Кбит/сек
Видео
Идентификатор : 224 (0xE0)
Формат : MPEG Video
Версия формата : Version 2
Профиль формата : Main@Main
Параметр BVOP формата : Да
Параметр матрицы формата : Выборочная
Параметр GOP формата : M=3, N=12
Продолжительность : 18 м.
Вид битрейта : Переменный
Битрейт : 7081 Кбит/сек
Максимальный битрейт : 9000 Кбит/сек
Ширина : 720 пикселей
Высота : 576 пикселей
Соотношение сторон : 16:9
Частота кадров : 25,000 кадров/сек
Стандарт вещания : PAL
Цветовое пространство : YUV
Субдискретизация насыщенности : 4:2:0
Битовая глубина : 8 бит
Тип развёртки : Прогрессивная
Порядок развёртки : Нижнее поле первое
Метод сжатия : С потерями
Бит/(Пиксели*Кадры) : 0.683
Временной код первого кадра : 00:18:58:17
Оригинал временного кода : Group of pictures header
GOP, открыто/закрыто : Открыто
GOP, открыто/закрыто на первом кадре : Закрыто
Размер потока : 944 Мбайт (92%)
Аудио
Идентификатор : 189 (0xBD)-128 (0x80)
Формат : AC-3
Формат/Информация : Audio Coding 3
Расширение режима : CM (complete main)
Параметр Endianness формата : Big
Режим смешивания : DVD-Video
Продолжительность : 18 м.
Вид битрейта : Постоянный
Битрейт : 448 Кбит/сек
Каналы : 6 каналов
Расположение каналов : Front: L C R, Side: L R, LFE
Частота : 48,0 КГц
Частота кадров : 31,250 кадров/сек (1536 spf)
Метод сжатия : С потерями
Задержка видео : -312 мс.
Размер потока : 59,7 Мбайт (6%)
Меню




   Похожие торренты   Торрент   Размер 
В этой теме нет новых непрочитанных сообщений. OST - Пятница (2016) MP3

88 | 5

70.39 МБ

В этой теме нет новых непрочитанных сообщений. Пятница (2016) Blu-Ray | лицензия

68 | 7

15.63 ГБ

В этой теме нет новых непрочитанных сообщений. Пятница (2016) WEB-DLRip

14452 | 2411

1.37 ГБ

В этой теме нет новых непрочитанных сообщений. Пятница (2016) WEB-DL 720p

4278 | 93

2.65 ГБ

В этой теме нет новых непрочитанных сообщений. Пятница (2016) WEB-DL 1080p

3913 | 103

2.98 ГБ

В этой теме нет новых непрочитанных сообщений. Пятница (2016) WEB-DLRip

823 | 130

745.01 МБ

В этой теме нет новых непрочитанных сообщений. Пятница (2016) WEB-DLRip-AVC от ExKinoRay

2961 | 280

1.46 ГБ




Вы не можете начинать темы
Вы не можете отвечать на сообщения
Вы не можете редактировать свои сообщения
Вы не можете удалять свои сообщения
Вы не можете добавлять вложения

Перейти:  
Для Мосгорсуда, Роскомнадзора и рекламодателей: mosgorsud-torrent[собачка]yandex.ru
 Вход
ppkBB3cker v.2 © 2008-2014 @ PPK
[ Time : 1.348s | 15 Queries | GZIP : Off ]
CGP output time : 0.016s | 5 Queries | GZIP : Off

Торрент трекер RUTOR.IN, Не можете зайти на rutor.org? Какой новый адрес рутор? Какое зеркало рутор? Не работает rutor.org и зеркала? Тогда наш торрент специально для вас. Rutor.in неофициальное зеркало rutor. В случае если у Вас заблокирован rutor или вдруг Вы не можете на него зайти, то Вы без труда сможете скачать бесплатно и без рекламы последние новинки кино, игр, сериалов и прочего у нас, на Rutor.in. Не нужно использовать прокси, чтобы зайти на рутор, достаточно воспользоваться нашим ресурсом. Все новые фильмы, игры, сериалы, книги и музыка за 2013 и 2014 годы через торрент бесплатно. Скачивайте фильмы в хорошем качестве, игры для пк, xbox, playstation без регистрации. У нас вы найдете новые Зарубежные сериалы и Русские сериалы 2013, 2014, 2015 годов. Оставайтесь с нами, качайте любимые фильмы, игры, сериалы, книги и музыку.