img image001 image001 image001 image001 image001 image001 image001 image001 image001 image001 image001 image001 image001 image001 image001

Planets Sun Sun Sun
Статистика раздачи
Автор: PriZraK | Размер: 1.45 ГБ | Добавлен: 23 сен 2016
Раздают: 2751    Качают: 638
Скачать торрент
Скачать торрент
Описание торрента

СообщениеДобавлено: 23 сен 2016 


Информация о фильме
Название: Спарта
Год выпуска: 2016
Жанр: Боевик, драма
Режиссер: Николай Кудряшов
В ролях: Николай Кудряшов, Денис Никифоров, Ян Цапник, Владимир Епифанцев, Максим Коновалов, Андрей Семенов, Михаил Малютин, Александр Шлеменко, Наталия Власова
О фильме:
Прямоугольный ринг и две команды бойцов друг напротив друга. Когда силы кончаются, товарища сменяет тот, кто за спиной… Это — Спарта! Новый зрелищный вид единоборств. «Спарта» для бывшего чемпиона по боям без правил Николая — единственная возможность вернуться в большой спорт и решить все проблемы, которые свалились на него три года назад: драка за честь подруги и тюрьма, предательство возлюбленной и отказ тренера в возвращении в команду. Вместе с верными друзьями спортсмен готов бросить вызов всему миру, и ставкой в бои станет его будущая жизнь.

Страна: Россия
Студия: Арго Фильм
Продолжительность: 01:22:46
Перевод: Не требуется (русский) | iTunes
Файл
Формат: AVI
Качество: WEB-DLRip
Видео: XviD build 73, 720x304 (2.35:1), 25.000 fps, 2118 Kbps (0.387 bit/pixel)
Звук: 48.0 kHz, AC3, 2 ch, 192 kbps
General
Complete name : Sparta.2016.XviD.WEB-DLRip.by.GeneralFilm.avi
Format : AVI
Format/Info : Audio Video Interleave
File size : 1.45 GiB
Duration : 1h 22mn
Overall bit rate : 2 512 Kbps
Writing application : VirtualDubMod 1.5.10.3 | www.virtualdub-fr.org || (build 2550/release)
Writing library : VirtualDubMod build 2550/release
Video
ID : 0
Format : MPEG-4 Visual
Format profile : Advanced Simple@L5
Format settings, BVOP : 1
Format settings, QPel : No
Format settings, GMC : No warppoints
Format settings, Matrix : Custom
Codec ID : XVID
Codec ID/Hint : XviD
Duration : 1h 22mn
Bit rate : 2 118 Kbps
Width : 720 pixels
Height : 304 pixels
Display aspect ratio : 2.35:1
Frame rate : 25.000 fps
Color space : YUV
Chroma subsampling : 4:2:0
Bit depth : 8 bits
Scan type : Progressive
Compression mode : Lossy
Bits/(Pixel*Frame) : 0.387
Stream size : 1.22 GiB (84%)
Writing library : XviD 73
Audio
ID : 1
Format : AC-3
Format/Info : Audio Coding 3
Mode extension : CM (complete main)
Format settings, Endianness : Big
Codec ID : 2000
Duration : 1h 22mn
Bit rate mode : Constant
Bit rate : 384 Kbps
Channel(s) : 6 channels
Channel positions : Front: L C R, Side: L R, LFE
Sampling rate : 48.0 KHz
Frame rate : 31.250 fps (1536 spf)
Compression mode : Lossy
Stream size : 227 MiB (15%)
Alignment : Split accross interleaves
Interleave, duration : 40 ms (1.00 video frame)
Interleave, preload duratio : 500 ms



Релиз от:



   Похожие торренты   Торрент   Размер 
В этой теме нет новых непрочитанных сообщений. Спарта (2016) WEB-DLRip-AVC | iTunes

352 | 88

749.65 МБ

В этой теме нет новых непрочитанных сообщений. Спарта (2016) WEB-DLRip-AVC | iTunes

1858 | 474

1.46 ГБ

В этой теме нет новых непрочитанных сообщений. Спарта (2016) WEB-DLRip от MegaPeer | iTunes

1840 | 290

743.87 МБ

В этой теме нет новых непрочитанных сообщений. Спарта (2016) WEB-DLRip от ImperiaFilm | КПК | iTunes

16 | 1

374.26 МБ

В этой теме нет новых непрочитанных сообщений. Спарта (2016) WEB-DLRip от ExKinoRay | iTunes

458 | 107

1.46 ГБ

В этой теме нет новых непрочитанных сообщений. Спарта (2016) WEB-DL 720p | iTunes

1530 | 284

2.54 ГБ

В этой теме нет новых непрочитанных сообщений. Спарта (2016) WEB-DL 1080p | iTunes

4453 | 565

3.04 ГБ




Вы не можете начинать темы
Вы не можете отвечать на сообщения
Вы не можете редактировать свои сообщения
Вы не можете удалять свои сообщения
Вы не можете добавлять вложения

Перейти:  
Для Мосгорсуда, Роскомнадзора и рекламодателей: mosgorsud-torrent[собачка]yandex.ru
 Вход
ppkBB3cker v.2 © 2008-2014 @ PPK
[ Time : 0.059s | 16 Queries | GZIP : Off ]

cron