img image001 image001 image001 image001 image001 image001 image001 image001 image001 image001 image001 image001 image001 image001 image001

Planets Sun Sun Sun
Статистика раздачи
Автор: PriZraK | Размер: 1.45 ГБ | Добавлен: 25 сен 2016
Раздают: 14    Качают: 12
Скачать торрент
Скачать торрент
Описание торрента

СообщениеДобавлено: 25 сен 2016 


Информация о фильме
Название: Гонка века
Год выхода: 1986
Жанр: Драма, спортивный
Режиссёр: Никита Орлов
В ролях: Элле Кулль, Леонхард Мерзин, Ростислав Янковский, Гирт Яковлев, Андрей Крюков, Улдис Лиелдидж, Витаутас Томкус, Василий Корзун, Владимир Эренберг, Тыну Луме, Владимир Сапожнин, Алекпер Алекперов, Николай Хрусталёв, Николай Томашевский, Наталья Гусева (I), Майт Лепик, Владимир Лаптев (I), Евгений Власов, Кенно Оя
О фильме: Из Англии стартовала кругосветная парусная гонка "Золотой глобус". По условиям гонки заходить по пути в какие-либо порты и гавани запрещалось. Во время шторма судно Дональда Кроухорста вышло из строя. Вынужденный остановиться вблизи аргентинского порта, он скрыл нарушение условия гонки и продолжил лидерство...
Доп. информация: В фильме снялась Наташа Гусева, известная как Алиса Селезнева по фильму "Гостья из будущего"

Страна: СССР
Студия: Мосфильм
Продолжительность: 01:26:16
Перевод: Не требуется (оригинальный)
Файл
Формат: avi
Качество: HDTVRip (HDTV.1080i)
Видео: XviD, 720х480, 25fps, 2202kbps
Аудио: AC3 Dolby Digital, 2ch, 48000Hz, 192kbps

General
Complete name : Gonka.Veka.1986.O.HDTVRip.1400.CurHaJI.avi
Format : AVI
Format/Info : Audio Video Interleave
File size : 1.45 GiB
Duration : 1h 26mn
Overall bit rate : 2 404 Kbps
Movie name : Gonka.Veka.1986.O.HDTVRip.1400.CurHaJI
Writing application : VirtualDubMod 1.5.10.3 | www.virtualdub-fr.org || (build 2550/release)
Writing library : VirtualDub build 35491/release
Video
ID : 0
Format : MPEG-4 Visual
Format profile : Advanced Simple@L5
Format settings, BVOP : 2
Format settings, QPel : No
Format settings, GMC : No warppoints
Format settings, Matrix : Custom
Codec ID : XVID
Codec ID/Hint : XviD
Duration : 1h 26mn
Bit rate : 2 202 Kbps
Width : 720 pixels
Height : 480 pixels
Display aspect ratio : 3:2
Frame rate : 25.000 fps
Standard : NTSC
Color space : YUV
Chroma subsampling : 4:2:0
Bit depth : 8 bits
Scan type : Progressive
Compression mode : Lossy
Bits/(Pixel*Frame) : 0.255
Stream size : 1.33 GiB (92%)
Writing library : XviD 73
Audio
ID : 1
Format : AC-3
Format/Info : Audio Coding 3
Mode extension : CM (complete main)
Format settings, Endianness : Big
Codec ID : 2000
Duration : 1h 26mn
Bit rate mode : Constant
Bit rate : 192 Kbps
Channel(s) : 2 channels
Channel positions : Front: L R
Sampling rate : 48.0 KHz
Bit depth : 16 bits
Compression mode : Lossy
Stream size : 118 MiB (8%)
Alignment : Split accross interleaves
Interleave, duration : 40 ms (1.00 video frame)
Interleave, preload duration : 500 ms


Релиз от:



   Похожие торренты   Торрент   Размер 
В этой теме нет новых непрочитанных сообщений. Гонка века (1986) SATRip

0 | 0

744.14 МБ

В этой теме нет новых непрочитанных сообщений. Биатлон. Рождественская гонка 2015. Масс-старт, гонка преследования, награждение [28.12] (2015) HDTVRip 720p | 50 fps

26 | 3

3.02 ГБ

В этой теме нет новых непрочитанных сообщений. Автоспорт. GP2 2013. Этап 03 из 11. Гран-при Испания. Квалификация, Гонка 1, Гонка 2 [Спорт 1] (2013) HDTVRip

0 | 1

1.99 ГБ

В этой теме нет новых непрочитанных сообщений. Биатлон. Рождественская гонка 2015. Масс-старт, гонка преследования, награждение [28.12] (2015) HDTVRip

65 | 12

1.34 ГБ

В этой теме нет новых непрочитанных сообщений. Биатлон. Рождественская гонка 2014. Гонка преследования (2014) HDTVRip 720p | 50 FPS

60 | 2

1.18 ГБ

В этой теме нет новых непрочитанных сообщений. Биатлон. Рождественская гонка 2014. Гонка преследования (2014) HDTVRip

77 | 4

558.18 МБ

В этой теме нет новых непрочитанных сообщений. Пираты ХХ века (1979) HDTVRip

171 | 27

1.37 ГБ




Вы не можете начинать темы
Вы не можете отвечать на сообщения
Вы не можете редактировать свои сообщения
Вы не можете удалять свои сообщения
Вы не можете добавлять вложения

Перейти:  
Для Мосгорсуда, Роскомнадзора и рекламодателей: mosgorsud-torrent[собачка]yandex.ru
 Вход
ppkBB3cker v.2 © 2008-2014 @ PPK
[ Time : 0.054s | 14 Queries | GZIP : Off ]

Торрент трекер RUTOR.IN, Не можете зайти на rutor.org? Какой новый адрес рутор? Какое зеркало рутор? Не работает rutor.org и зеркала? Тогда наш торрент специально для вас. Rutor.in неофициальное зеркало rutor. В случае если у Вас заблокирован rutor или вдруг Вы не можете на него зайти, то Вы без труда сможете скачать бесплатно и без рекламы последние новинки кино, игр, сериалов и прочего у нас, на Rutor.in. Не нужно использовать прокси, чтобы зайти на рутор, достаточно воспользоваться нашим ресурсом. Все новые фильмы, игры, сериалы, книги и музыка за 2013 и 2014 годы через торрент бесплатно. Скачивайте фильмы в хорошем качестве, игры для пк, xbox, playstation без регистрации. У нас вы найдете новые Зарубежные сериалы и Русские сериалы 2013, 2014, 2015 годов. Оставайтесь с нами, качайте любимые фильмы, игры, сериалы, книги и музыку.