img image001 image001 image001 image001 image001 image001 image001 image001 image001 image001 image001 image001 image001 image001 image001

Planets Sun Sun Sun
Статистика раздачи
Автор: PriZraK | Размер: 745.95 МБ | Добавлен: 30 сен 2016
Раздают: 9    Качают: 0
Скачать торрент
Скачать торрент
Описание торрента

СообщениеДобавлено: 30 сен 2016 


Информация о фильме
Название: Ночные стражи / Крылья
Год выхода: 2016
Жанр: Фэнтези, боевик
Режиссер: Эмилис Веливис
В ролях: Иван Янковский, Любовь Аксёнова, Леонид Ярмольник, Михаил Евланов, Сабина Ахмедова, Константин Адаев, Юрий Ваксман, Алексей Дмитриев, Денис Бузин, Евгений Косырев
О фильме:
Оборотни, упыри и ведьмы — существуют. Если вы до сих пор не сталкивались с ними, то это заслуга отдела по надзору за представителями альтернативной жизни.
Обычный курьер случайно становится свидетелем зачистки нечисти в одном из столичных отелей, после чего получает новую работу.
Сотрудники отдела «Н» не бессмертны, но даже вампирам они не по зубам.

Страна: Россия
Студия: Марс Медиа Энтертейнмент
Продолжительность: 01:35:28
Перевод: Не требуется
Файл
Кодек: XviD
Качество: HDTVRip
Видео: 688x288 (2.39:1), 25 fps, XviD build 73 ~954 kbps avg, 0.19 bit/pixel
Звук: 48 kHz, MPEG Layer 3, 2 ch, ~128.00 kbps avg
Субтитры: Отсутствуют
Семпл
General
Complete name : E:Изготовление рипаStragi.2016.HDTVrip by shkiper.avi
Format : AVI
Format/Info : Audio Video Interleave
File size : 746 MiB
Duration : 1h 35mn
Overall bit rate : 1 092 Kbps
Writing application : VirtualDubMod 1.5.10.3 | www.virtualdub-fr.org || (build 2550/release)
Writing library : VirtualDubMod build 2550/release
Video
ID : 0
Format : MPEG-4 Visual
Format profile : Advanced Simple@L5
Format settings, BVOP : 1
Format settings, QPel : No
Format settings, GMC : No warppoints
Format settings, Matrix : Custom
Codec ID : XVID
Codec ID/Hint : XviD
Duration : 1h 35mn
Bit rate : 955 Kbps
Width : 688 pixels
Height : 288 pixels
Display aspect ratio : 2.40:1
Frame rate : 25.000 fps
Color space : YUV
Chroma subsampling : 4:2:0
Bit depth : 8 bits
Scan type : Progressive
Compression mode : Lossy
Bits/(Pixel*Frame) : 0.193
Stream size : 652 MiB (87%)
Writing library : XviD 73
Audio
ID : 1
Format : MPEG Audio
Format version : Version 1
Format profile : Layer 3
Codec ID : 55
Codec ID/Hint : MP3
Duration : 1h 35mn
Bit rate mode : Constant
Bit rate : 128 Kbps
Channel(s) : 2 channels
Sampling rate : 48.0 KHz
Compression mode : Lossy
Stream size : 87.4 MiB (12%)
Alignment : Aligned on interleaves
Interleave, duration : 40 ms (1.00 video frame)
Interleave, preload duratio : 504 ms
Writing library : LAME3.99r
Encoding settings : -m s -V 4 -q 2 -lowpass 17 -b 128

Релиз от:



   Похожие торренты   Торрент   Размер 
В этой теме нет новых непрочитанных сообщений. Ночные стражи / Крылья (Эмилис Веливис) [2016, фэнтези, боевик, триллер, BDRip] / Фантастика

26 | 0

1.46 ГБ

В этой теме нет новых непрочитанных сообщений. Ночные стражи / Крылья (Эмилис Веливис) [2016, фэнтези, боевик, триллер, BDRip-AVC] / Фантастика

59 | 1

2.18 ГБ

В этой теме нет новых непрочитанных сообщений. Ночные стражи (2016) HDRip от ImperiaFilm | Лицензия

63 | 8

745.64 МБ

В этой теме нет новых непрочитанных сообщений. Ночные стражи (2016) HDRip-AVC от ImperiaFilm | Лицензия

16 | 3

741.32 МБ

В этой теме нет новых непрочитанных сообщений. Ночные стражи (2016) HDTVRip-AVC

0 | 0

2.06 ГБ

В этой теме нет новых непрочитанных сообщений. Ночные стражи (2016) HDTVRip

1392 | 12

1.37 ГБ

В этой теме нет новых непрочитанных сообщений. Ночные стражи (2016) HDTVRip-AVC

10 | 0

750.3 МБ




Вы не можете начинать темы
Вы не можете отвечать на сообщения
Вы не можете редактировать свои сообщения
Вы не можете удалять свои сообщения
Вы не можете добавлять вложения

Перейти:  
Для Мосгорсуда, Роскомнадзора и рекламодателей: mosgorsud-torrent[собачка]yandex.ru
 Вход
ppkBB3cker v.2 © 2008-2014 @ PPK
[ Time : 0.054s | 18 Queries | GZIP : Off ]

Торрент трекер RUTOR.IN, Не можете зайти на rutor.org? Какой новый адрес рутор? Какое зеркало рутор? Не работает rutor.org и зеркала? Тогда наш торрент специально для вас. Rutor.in неофициальное зеркало rutor. В случае если у Вас заблокирован rutor или вдруг Вы не можете на него зайти, то Вы без труда сможете скачать бесплатно и без рекламы последние новинки кино, игр, сериалов и прочего у нас, на Rutor.in. Не нужно использовать прокси, чтобы зайти на рутор, достаточно воспользоваться нашим ресурсом. Все новые фильмы, игры, сериалы, книги и музыка за 2013 и 2014 годы через торрент бесплатно. Скачивайте фильмы в хорошем качестве, игры для пк, xbox, playstation без регистрации. У нас вы найдете новые Зарубежные сериалы и Русские сериалы 2013, 2014, 2015 годов. Оставайтесь с нами, качайте любимые фильмы, игры, сериалы, книги и музыку.
cron