img image001 image001 image001 image001 image001 image001 image001 image001 image001 image001 image001 image001 image001 image001 image001

Planets Sun Sun Sun
Статистика раздачи
Автор: PriZraK | Размер: 743.39 МБ | Добавлен: 04 окт 2016
Раздают: 37    Качают: 3
Скачать торрент
Скачать торрент
Описание торрента

СообщениеДобавлено: 04 окт 2016 


Информация о фильме
Название: Тэли и Толи
Год выпуска: 2015
Жанр: Комедия, мелодрама
Режиссер: Александр Амиров
В ролях: Нуца Хубулава, Риналь Мухаметов, Кахи Кавсадзе, Дагун Омаев, Нанули Сараджишвили, Сослан Фидаров, Сергей Погосян, Иван Дубровский, Владислав Дёмин, Анатолий Дзиваев, Казбек Кибизов
О фильме:
Эта житейская история, происходящая в горах Северного Кавказа на границе двух деревень — осетинского Толи и грузинского Тэли, рассказывает нам о простых и наивных людях, которые, вопреки тому, что их сегодня пытаются разделить официальной границей, хотят жить в мире и согласии, не взирая на национальности и реалии времени — так, как сотни лет жили их деды и прадеды, привыкшие все конфликты решать мирным путем и по обычаям Кавказа — за большим столом с вином и песнями

Страна: Россия
Студия: ООО «Продюсерский Центр «Хорошо Продакшн»
Продолжительность: 01:14:00
Перевод: Не требуется (русский)
Файл
Формат: AVI
Качество: WEB-DLRip
Видео: XviD build 73, 688x288 (2.40:1), 24.000 fps, 1267 Kbps (0.256 bit/pixel)
Звук: 48.0 kHz, MP3, 2 ch, 128 kbps
General
Complete name : Teli.i.Toli.2015.XviD.WEB-DLRip.by.GeneralFilm.avi
Format : AVI
Format/Info : Audio Video Interleave
File size : 743 MiB
Duration : 1h 14mn
Overall bit rate : 1 404 Kbps
Writing application : VirtualDubMod 1.5.10.3 | www.virtualdub-fr.org || (build 2550/release)
Writing library : VirtualDubMod build 2550/release
Video
ID : 0
Format : MPEG-4 Visual
Format profile : Advanced Simple@L5
Format settings, BVOP : 1
Format settings, QPel : No
Format settings, GMC : No warppoints
Format settings, Matrix : Custom
Codec ID : XVID
Codec ID/Hint : XviD
Duration : 1h 14mn
Bit rate : 1 267 Kbps
Width : 688 pixels
Height : 288 pixels
Display aspect ratio : 2.40:1
Frame rate : 25.000 fps
Color space : YUV
Chroma subsampling : 4:2:0
Bit depth : 8 bits
Scan type : Progressive
Compression mode : Lossy
Bits/(Pixel*Frame) : 0.256
Stream size : 670 MiB (90%)
Writing library : XviD 73
Audio
ID : 1
Format : MPEG Audio
Format version : Version 1
Format profile : Layer 3
Codec ID : 55
Codec ID/Hint : MP3
Duration : 1h 14mn
Bit rate mode : Constant
Bit rate : 128 Kbps
Channel(s) : 2 channels
Sampling rate : 48.0 KHz
Compression mode : Lossy
Stream size : 67.8 MiB (9%)
Alignment : Aligned on interleaves
Interleave, duration : 40 ms (1.00 video frame)
Interleave, preload duratio : 504 ms
Writing library : LAME3.99r
Encoding settings : -m s -V 4 -q 0 -lowpass 17 -b 128





Релиз от:



   Похожие торренты   Торрент   Размер 
В этой теме нет новых непрочитанных сообщений. Тэли и Толи (2016) WEB-DLRip

1093 | 138

1.43 ГБ

В этой теме нет новых непрочитанных сообщений. Тэли и Толи (2016) WEB-DLRip-AVC

34 | 6

749.4 МБ

В этой теме нет новых непрочитанных сообщений. Тэли и Толи (2016) WEB-DLRip от MegaPeer

35 | 6

744.14 МБ

В этой теме нет новых непрочитанных сообщений. Тэли и Толи (2016) WEB-DLRip 720p

366 | 9

2.29 ГБ

В этой теме нет новых непрочитанных сообщений. Приключения Толи Клюквина (1964) DVDRip

88 | 7

1.09 ГБ

В этой теме нет новых непрочитанных сообщений. Николай Носов - Приключения Толи Клюквина (2011) MP3

48 | 12

439.12 МБ

В этой теме нет новых непрочитанных сообщений. Николай Носов - Приключения Толи Клюквина (2007) MP3

12 | 4

92.06 МБ




Вы не можете начинать темы
Вы не можете отвечать на сообщения
Вы не можете редактировать свои сообщения
Вы не можете удалять свои сообщения
Вы не можете добавлять вложения

Перейти:  
Для Мосгорсуда, Роскомнадзора и рекламодателей: mosgorsud-torrent[собачка]yandex.ru
 Вход
ppkBB3cker v.2 © 2008-2014 @ PPK
[ Time : 0.017s | 14 Queries | GZIP : On ]

Торрент трекер RUTOR.IN, Не можете зайти на rutor.org? Какой новый адрес рутор? Какое зеркало рутор? Не работает rutor.org и зеркала? Тогда наш торрент специально для вас. Rutor.in неофициальное зеркало rutor. В случае если у Вас заблокирован rutor или вдруг Вы не можете на него зайти, то Вы без труда сможете скачать бесплатно и без рекламы последние новинки кино, игр, сериалов и прочего у нас, на Rutor.in. Не нужно использовать прокси, чтобы зайти на рутор, достаточно воспользоваться нашим ресурсом. Все новые фильмы, игры, сериалы, книги и музыка за 2013 и 2014 годы через торрент бесплатно. Скачивайте фильмы в хорошем качестве, игры для пк, xbox, playstation без регистрации. У нас вы найдете новые Зарубежные сериалы и Русские сериалы 2013, 2014, 2015 годов. Оставайтесь с нами, качайте любимые фильмы, игры, сериалы, книги и музыку.