img image001 image001 image001 image001 image001 image001 image001 image001 image001 image001 image001 image001 image001 image001 image001

Planets Sun Sun Sun
Статистика раздачи
Автор: PriZraK | Размер: 1.46 ГБ | Добавлен: 06 окт 2016
Раздают: 6    Качают: 3
Скачать торрент
Скачать торрент
Описание торрента

СообщениеДобавлено: 06 окт 2016 

Страна: СССР
Производство: к/с им. М.Горького
Жанр: драма, мелодрама
Год выпуска: 1956
Продолжительность: 01:40:21
Перевод: Не требуется
Cубтитры: нет
Оригинальная аудиодорожка: русский
Режиссер: Леонид Луков
В ролях:
Татьяна Пилецкая, Юлиан Панич, Лев Свердлин, Ольга Жизнева, Татьяна Конюхова, Георгий Юматов, Ада Войцик, Владимир Дорофеев, Сергей Блинников, Валентина Ушакова, Константин Сорокин, Всеволод Санаев, Бруно Фрейндлих, Лилия Максимова...
Полный список актёров
Описание:
Популярная мелодрама 50-х годов о выпускниках ленинградской школы.
Эгоистичная и тщеславная Танечка Огнева поступает в металлургический институт и выходит замуж за нелюбимого однокласника, а любящий её Степан уезжает из Ленинграда в Новосибирск работать сталеваром на металлургическом комбинате...





Источник: DVD9 R5
Качество видео: DVDRip
Формат видео: AVI
Видео: 688x512 (4:3), 25 fps, XviD ~ 1622 kbps avg, 0.184 bit/pixel
Аудио: 48 kHz, Dolby Digital AC3 5.1, 448 kbps
Раздача от:
Общее
Полное имя : Raznye.sudby.1956.DVDRip_[New-team]_by_AVP_Studio.avi
Формат : AVI
Формат/Информация : Audio Video Interleave
Размер файла : 1,46 Гбайт
Продолжительность : 1 ч. 40 м.
Общий поток : 2080 Кбит/сек
Программа кодирования : VirtualDubMod 1.5.10.3 | www.virtualdub-fr.org || (build 2550/release)
Библиотека кодирования : VirtualDubMod build 2550/release
Видео
Идентификатор : 0
Формат : MPEG-4 Visual
Профиль формата : Advanced Simple@L5
Параметр BVOP формата : 1
Параметр QPel формата : Нет
Параметр GMC формата : Без точки перехода
Параметр матрицы формата : Выборочная
Идентификатор кодека : XVID
Идентификатор кодека/Подсказка : XviD
Продолжительность : 1 ч. 40 м.
Битрейт : 1622 Кбит/сек
Ширина : 688 пикселей
Высота : 512 пикселей
Соотношение сторон : 4:3
Частота кадров : 25,000 кадров/сек
Цветовое пространство : YUV
Субдискретизация насыщенности : 4:2:0
Битовая глубина : 8 бит
Тип развёртки : Прогрессивная
Метод сжатия : С потерями
Бит/(Пиксели*Кадры) : 0.184
Размер потока : 1,14 Гбайт (78%)
Библиотека кодирования : XviD 1.2.1 (UTC 2008-12-04)
Аудио
Идентификатор : 1
Формат : AC-3
Формат/Информация : Audio Coding 3
Расширение режима : CM (complete main)
Параметр Endianness формата : Big
Идентификатор кодека : 2000
Продолжительность : 1 ч. 40 м.
Вид битрейта : Постоянный
Битрейт : 448 Кбит/сек
Каналы : 6 каналов
Расположение каналов : Front: L C R, Side: L R, LFE
Частота : 48,0 КГц
Частота кадров : 31,250 кадров/сек (1536 spf)
Метод сжатия : С потерями
Размер потока : 322 Мбайт (22%)
Выравнивание : Разделение по промежуткам
Продолжительность промежутка : 40 мс. (1,00 видеокадр)
Время предзагрузки промежутка : 500 мс





   Похожие торренты   Торрент   Размер 
В этой теме нет новых непрочитанных сообщений. Разные судьбы (1956) DVDRip от New-Team

16 | 2

744.6 МБ

В этой теме нет новых непрочитанных сообщений. Разные судьбы (1956) DVDRip-AVC от New-Team

39 | 2

1.46 ГБ

В этой теме нет новых непрочитанных сообщений. Разные судьбы (1956) DVDRip

283 | 16

1.44 ГБ

В этой теме нет новых непрочитанных сообщений. Эти разные, разные, разные лица... (1971) DVDRip от Odyzic и MyWorldFilm

73 | 7

1.33 ГБ

В этой теме нет новых непрочитанных сообщений. Эти разные, разные, разные лица... (1971) DVDRip от старпёра

4 | 5

913.8 МБ

В этой теме нет новых непрочитанных сообщений. Баран с пятью ногами (Такие разные судьбы) / Le Mouton à cinq pattes (1954) DVDRip - LTarik

60 | 4

1.37 ГБ

В этой теме нет новых непрочитанных сообщений. Черчень Александра - Легенды Изначальной Империи 02. Разные судьбы нас выбирают (2015) MP3

56 | 2

738.09 МБ




Вы не можете начинать темы
Вы не можете отвечать на сообщения
Вы не можете редактировать свои сообщения
Вы не можете удалять свои сообщения
Вы не можете добавлять вложения

Перейти:  
Для Мосгорсуда, Роскомнадзора и рекламодателей: mosgorsud-torrent[собачка]yandex.ru
 Вход
ppkBB3cker v.2 © 2008-2014 @ PPK
[ Time : 0.862s | 16 Queries | GZIP : Off ]

Торрент трекер RUTOR.IN, Не можете зайти на rutor.org? Какой новый адрес рутор? Какое зеркало рутор? Не работает rutor.org и зеркала? Тогда наш торрент специально для вас. Rutor.in неофициальное зеркало rutor. В случае если у Вас заблокирован rutor или вдруг Вы не можете на него зайти, то Вы без труда сможете скачать бесплатно и без рекламы последние новинки кино, игр, сериалов и прочего у нас, на Rutor.in. Не нужно использовать прокси, чтобы зайти на рутор, достаточно воспользоваться нашим ресурсом. Все новые фильмы, игры, сериалы, книги и музыка за 2013 и 2014 годы через торрент бесплатно. Скачивайте фильмы в хорошем качестве, игры для пк, xbox, playstation без регистрации. У нас вы найдете новые Зарубежные сериалы и Русские сериалы 2013, 2014, 2015 годов. Оставайтесь с нами, качайте любимые фильмы, игры, сериалы, книги и музыку.