img image001 image001 image001 image001 image001 image001 image001 image001 image001 image001 image001 image001 image001 image001 image001

Planets Sun Sun Sun
Статистика раздачи
Автор: PriZraK | Размер: 1.46 ГБ | Добавлен: 06 окт 2016
Раздают: 43    Качают: 0
Скачать торрент
Скачать торрент
Описание торрента

СообщениеДобавлено: 06 окт 2016 

Страна: СССР
Производство: к/с им. М.Горького
Жанр: драма, мелодрама
Год выпуска: 1956
Продолжительность: 01:40:21
Перевод: Не требуется
Cубтитры: нет
Оригинальная аудиодорожка: русский
Режиссер: Леонид Луков
В ролях:
Татьяна Пилецкая, Юлиан Панич, Лев Свердлин, Ольга Жизнева, Татьяна Конюхова, Георгий Юматов, Ада Войцик, Владимир Дорофеев, Сергей Блинников, Валентина Ушакова, Константин Сорокин, Всеволод Санаев, Бруно Фрейндлих, Лилия Максимова...
Полный список актёров
Описание:
Популярная мелодрама 50-х годов о выпускниках ленинградской школы.
Эгоистичная и тщеславная Танечка Огнева поступает в металлургический институт и выходит замуж за нелюбимого однокласника, а любящий её Степан уезжает из Ленинграда в Новосибирск работать сталеваром на металлургическом комбинате...





Источник: DVD9 R5
Качество видео: DVDRip-AVC
Формат видео: MKV
Видео: 696->760x570 (4:3), 25 fps, H264 ~ 1631 kbps avg, 0.164 bit/pixel
Аудио: 48 kHz, Dolby Digital AC3 5.1, 448 kbps
Раздача от:
Общее
Полное имя : Raznye.sudby.1956.DVDRip-AVC_[New-team]_by_AVP_Studio.mkv
Формат : Matroska
Версия формата : Version 2
Размер файла : 1,46 Гбайт
Продолжительность : 1 ч. 40 м.
Общий поток : 2081 Кбит/сек
Дата кодирования : UTC 2016-09-16 14:18:56
Программа кодирования : mkvmerge v6.1.0 ('Old Devil') built on Mar 4 2013 09:10:42
Библиотека кодирования : libebml v1.3.0 + libmatroska v1.4.0
Видео
Идентификатор : 1
Формат : AVC
Формат/Информация : Advanced Video Codec
Профиль формата : High@L4.1
Параметр CABAC формата : Да
Параметр ReFrames формата : 10 кадров
Идентификатор кодека : V_MPEG4/ISO/AVC
Продолжительность : 1 ч. 40 м.
Битрейт : 1631 Кбит/сек
Ширина : 696 пикселей
Высота : 570 пикселей
Соотношение сторон : 4:3
Режим частоты кадров : Постоянный
Частота кадров : 25,000 кадров/сек
Цветовое пространство : YUV
Субдискретизация насыщенности : 4:2:0
Битовая глубина : 8 бит
Тип развёртки : Прогрессивная
Бит/(Пиксели*Кадры) : 0.164
Размер потока : 1,12 Гбайт (76%)
Библиотека кодирования : x264 core 148 r2597 e86f3a1
Настройки программы : cabac=1 / ref=10 / deblock=1:-2:-1 / analyse=0x3:0x113 / me=umh / subme=10 / psy=1 / psy_rd=1.00:0.00 / mixed_ref=1 / me_range=32 / chroma_me=1 / trellis=2 / 8x8dct=1 / cqm=0 / deadzone=21,11 / fast_pskip=1 / chroma_qp_offset=-2 / threads=6 / lookahead_threads=1 / sliced_threads=0 / nr=0 / decimate=0 / interlaced=0 / bluray_compat=0 / constrained_intra=0 / bframes=8 / b_pyramid=2 / b_adapt=2 / b_bias=0 / direct=3 / weightb=1 / open_gop=0 / weightp=2 / keyint=250 / keyint_min=25 / scenecut=40 / intra_refresh=0 / rc=2pass / mbtree=0 / bitrate=1631 / ratetol=1.0 / qcomp=0.60 / qpmin=0 / qpmax=69 / qpstep=4 / cplxblur=20.0 / qblur=0.5 / ip_ratio=1.40 / pb_ratio=1.30 / aq=1:1.00
Default : Да
Forced : Нет
Аудио
Идентификатор : 2
Формат : AC-3
Формат/Информация : Audio Coding 3
Расширение режима : CM (complete main)
Параметр Endianness формата : Big
Идентификатор кодека : A_AC3
Продолжительность : 1 ч. 40 м.
Вид битрейта : Постоянный
Битрейт : 448 Кбит/сек
Каналы : 6 каналов
Расположение каналов : Front: L C R, Side: L R, LFE
Частота : 48,0 КГц
Частота кадров : 31,250 кадров/сек (1536 spf)
Метод сжатия : С потерями
Размер потока : 322 Мбайт (22%)
Default : Да
Forced : Нет





   Похожие торренты   Торрент   Размер 
В этой теме нет новых непрочитанных сообщений. Разные судьбы (1956) DVDRip от New-Team

17 | 0

1.46 ГБ

В этой теме нет новых непрочитанных сообщений. Разные судьбы (1956) DVDRip от New-Team

0 | 0

744.6 МБ

В этой теме нет новых непрочитанных сообщений. Разные судьбы (1956) DVDRip

283 | 16

1.44 ГБ

В этой теме нет новых непрочитанных сообщений. Эти разные, разные, разные лица... (1971) DVDRip от Odyzic и MyWorldFilm

73 | 7

1.33 ГБ

В этой теме нет новых непрочитанных сообщений. Эти разные, разные, разные лица... (1971) DVDRip от старпёра

4 | 5

913.8 МБ

В этой теме нет новых непрочитанных сообщений. Баран с пятью ногами (Такие разные судьбы) / Le Mouton à cinq pattes (1954) DVDRip - LTarik

60 | 4

1.37 ГБ

В этой теме нет новых непрочитанных сообщений. Черчень Александра - Легенды Изначальной Империи 02. Разные судьбы нас выбирают (2015) MP3

56 | 2

738.09 МБ




Вы не можете начинать темы
Вы не можете отвечать на сообщения
Вы не можете редактировать свои сообщения
Вы не можете удалять свои сообщения
Вы не можете добавлять вложения

Перейти:  
Для Мосгорсуда, Роскомнадзора и рекламодателей: mosgorsud-torrent[собачка]yandex.ru
 Вход
ppkBB3cker v.2 © 2008-2014 @ PPK
[ Time : 0.019s | 14 Queries | GZIP : Off ]
CGP output time : 0.030s | 5 Queries | GZIP : Off

Торрент трекер RUTOR.IN, Не можете зайти на rutor.org? Какой новый адрес рутор? Какое зеркало рутор? Не работает rutor.org и зеркала? Тогда наш торрент специально для вас. Rutor.in неофициальное зеркало rutor. В случае если у Вас заблокирован rutor или вдруг Вы не можете на него зайти, то Вы без труда сможете скачать бесплатно и без рекламы последние новинки кино, игр, сериалов и прочего у нас, на Rutor.in. Не нужно использовать прокси, чтобы зайти на рутор, достаточно воспользоваться нашим ресурсом. Все новые фильмы, игры, сериалы, книги и музыка за 2013 и 2014 годы через торрент бесплатно. Скачивайте фильмы в хорошем качестве, игры для пк, xbox, playstation без регистрации. У нас вы найдете новые Зарубежные сериалы и Русские сериалы 2013, 2014, 2015 годов. Оставайтесь с нами, качайте любимые фильмы, игры, сериалы, книги и музыку.