img image001 image001 image001 image001 image001 image001 image001 image001 image001 image001 image001 image001 image001 image001 image001

Planets Sun Sun Sun
Статистика раздачи
Автор: PriZraK | Размер: 1.41 ГБ | Добавлен: 06 окт 2016
Раздают: 1    Качают: 0
Скачать торрент
Скачать торрент
Описание торрента

СообщениеДобавлено: 06 окт 2016 


Информация о фильме
Название: Облака
Год выхода: 1973
Жанр: киноповесть
Режиссер: Борис Степанов
В ролях: Евгений Герасимов, Ия Саввина, Лев Дуров, Юрий Смирнов, Мария Соломина, Евгений Меньшов, Егор Николаев, Борис Гитин, Иван Рыжов, Николай Крюков, Федор Никитин, Игорь Кашинцев, Василий Фущич, И. Жаров, Л. Сопельниченко, Татьяна Чекатовская
О фильме:
Парень, мечтающий об авиации, не прошел медицинскую комиссию. Однако от мечты своей не отказался: работал, тренировался, слушал советы взрослых. На следующий год с вестибулярным аппаратом было не лучше: комиссия опять забраковала парня. А он опять не смирился, устроился в мастерскую аэропорта и через некоторое время взмыл в воздух на отремонтированном собственными руками самолете...
Доп. информация:
Сценарист: Борис Лобков
Оператор: Виталий Николаев
Композитор: Олег Каравайчук
Художник: Вячеслав Кубарев
Производство: Беларусьфильм
Премьера: 10 сентября 1973
Запись потока *.ts с наземного цифрового телеканала "Беларусь 3".

Благодарность: за помощь с недостающим материалом Bartimeyse и PavelDAS. Обоим большое спасибо!
Страна: СССР
Студия: Беларусьфильм
Продолжительность: 01:16:07
Перевод: не требует
Файл
Кодек: AVC (H264)
Качество: DVB
Видео: MPEG4 Video (H264) 720(785)x576 (49:36) 25fps, 2 257 Kbps
Звук: MPEG Audio 48000Hz stereo 256kbps
Семпл
Код:
General
ID                             : 1 (0x1)
Complete name                  : D:Новая  земля 2Художественные фильмыОблака (1973)Облака (1973).ts
Format                         : MPEG-TS
File size                      : 1.41 GiB
Duration                       : 1 h 16 min
Overall bit rate mode          : Variable
Overall bit rate               : 2 646 kb/s
Video
ID                             : 801 (0x321)
Menu ID                        : 1 (0x1)
Format                         : AVC
Format/Info                    : Advanced Video Codec
Format profile                 : Main@L3
Format settings, CABAC         : Yes
Format settings, ReFrames      : 4 frames
Format settings, GOP           : M=4, N=24
Codec ID                       : 27
Duration                       : 1 h 16 min
Bit rate                       : 2 257 kb/s
Width                          : 720 pixels
Height                         : 576 pixels
Display aspect ratio           : 4:3
Frame rate                     : 25.000 FPS
Standard                       : PAL
Color space                    : YUV
Chroma subsampling             : 4:2:0
Bit depth                      : 8 bits
Scan type                      : MBAFF
Scan type, store method        : Interleaved fields
Scan order                     : Top Field First
Bits/(Pixel*Frame)             : 0.218
Stream size                    : 1.20 GiB (85%)
Color range                    : Limited
Color primaries                : BT.601 PAL
Transfer characteristics       : BT.470 System B, BT.470 System G
Matrix coefficients            : BT.601
Audio
ID                             : 802 (0x322)
Menu ID                        : 1 (0x1)
Format                         : MPEG Audio
Format version                 : Version 1
Format profile                 : Layer 2
Codec ID                       : 3
Duration                       : 1 h 16 min
Bit rate mode                  : Constant
Bit rate                       : 256 kb/s
Channel(s)                     : 2 channels
Sampling rate                  : 48.0 kHz
Compression mode               : Lossy
Stream size                    : 139 MiB (10%)
Language                       : English





   Похожие торренты   Торрент   Размер 
В этой теме нет новых непрочитанных сообщений. D-Man 55 - Облака (2011) MP3

24 | 3

71.11 МБ

В этой теме нет новых непрочитанных сообщений. Облака (2009) PSD

22 | 2

418.49 МБ

В этой теме нет новых непрочитанных сообщений. Держись за облака (1971) SATRip

69 | 3

1.35 ГБ

В этой теме нет новых непрочитанных сообщений. Александр Софикс - Прогулки за облака (2009) MP3

82 | 10

130.78 МБ

В этой теме нет новых непрочитанных сообщений. Дорога в облака / O Caminho das Nuvens (2003) DVDRip от FilmRus | L1

143 | 27

1.37 ГБ

В этой теме нет новых непрочитанных сообщений. Пока плывут облака / Till The Clouds Roll By (1946) DVD9

1 | 4

7.38 ГБ

В этой теме нет новых непрочитанных сообщений. Пока плывут облака / Till The Clouds Roll By (1946) DVDRip от Generalfilm

1 | 7

2.06 ГБ




Вы не можете начинать темы
Вы не можете отвечать на сообщения
Вы не можете редактировать свои сообщения
Вы не можете удалять свои сообщения
Вы не можете добавлять вложения

Перейти:  
Для Мосгорсуда, Роскомнадзора и рекламодателей: mosgorsud-torrent[собачка]yandex.ru
 Вход
ppkBB3cker v.2 © 2008-2014 @ PPK
[ Time : 0.134s | 14 Queries | GZIP : Off ]

Торрент трекер RUTOR.IN, Не можете зайти на rutor.org? Какой новый адрес рутор? Какое зеркало рутор? Не работает rutor.org и зеркала? Тогда наш торрент специально для вас. Rutor.in неофициальное зеркало rutor. В случае если у Вас заблокирован rutor или вдруг Вы не можете на него зайти, то Вы без труда сможете скачать бесплатно и без рекламы последние новинки кино, игр, сериалов и прочего у нас, на Rutor.in. Не нужно использовать прокси, чтобы зайти на рутор, достаточно воспользоваться нашим ресурсом. Все новые фильмы, игры, сериалы, книги и музыка за 2013 и 2014 годы через торрент бесплатно. Скачивайте фильмы в хорошем качестве, игры для пк, xbox, playstation без регистрации. У нас вы найдете новые Зарубежные сериалы и Русские сериалы 2013, 2014, 2015 годов. Оставайтесь с нами, качайте любимые фильмы, игры, сериалы, книги и музыку.