img image001 image001 image001 image001 image001 image001 image001 image001 image001 image001 image001 image001 image001 image001 image001

Planets Sun Sun Sun
Статистика раздачи
Автор: PriZraK | Размер: 1.17 ГБ | Добавлен: 09 окт 2016
Раздают: 99    Качают: 5
Скачать торрент
Скачать торрент
Описание торрента

СообщениеДобавлено: 09 окт 2016 

Информация о фильме
Название: Ночные стражи
Год выпуска: 2016
Страна: Россия
Жанр: фэнтези, боевик

Перевод: Не требуется [Русский] (iTunes)
Продолжительность: 01:36:47

Режиссер: Эмилис Веливис
В ролях: Иван Янковский (Павел), Любовь Аксенова, Леонид Ярмольник, Михаил Евланов, Сабина Ахмедова, Константин Адаев (Кирилл), Юрий Ваксман (Кондаков), Алексей Дмитриев (Михал), Денис Бузин (Портье), Евгений Косырев (Димыч), Прадьюмна Чаттерджи (постоялец), Михаил Самота (вампир)


Описание:
Оборотни, упыри и ведьмы - существуют. Если вы до сих пор не сталкивались с ними, то это заслуга отдела по надзору за представителями альтернативной жизни.

Рейтинг:


Качество: WEB-DLRip-AVC
Формат: MKV
Видео: AVC, 1024x430 (2.40:1), 1345 kbps, 25 fps, 0,122 bpp
Аудио: русский / AC3 / 5.1 / 48 kHz / 384 kbps / |iTunes|
Сэмпл


Релиз от: by


General
Unique ID : 199859135632451060228804104119775558229 (0x965B782A6D61821582DE66562B367A55)
Complete name : E:H04HYe.CtPagi.2016.WEB-DLRip-AVC.by.White Smoke.R.G.Resident.mkv
Format : Matroska
Format version : Version 4 / Version 2
File size : 1.17 GiB
Duration : 1 h 36 min
Overall bit rate : 1 729 kb/s
Movie name : H04HYe.CtPagi.2016.WEB-DLRip-AVC.by.White Smoke.R.G.Resident.mkv
Encoded date : UTC 2016-10-06 16:32:54
Writing application : mkvmerge v6.8.0 ('Theme for Great Cities') 64bit built on Mar 2 2014 21:34:26
Writing library : libebml v1.3.0 + libmatroska v1.4.1
Video
ID : 1
Format : AVC
Format/Info : Advanced Video Codec
Format profile : High@L4.1
Format settings, CABAC : Yes
Format settings, ReFrames : 12 frames
Codec ID : V_MPEG4/ISO/AVC
Duration : 1 h 36 min
Bit rate : 1 345 kb/s
Width : 1 024 pixels
Height : 430 pixels
Display aspect ratio : 2.40:1
Frame rate mode : Constant
Frame rate : 25.000 FPS
Color space : YUV
Chroma subsampling : 4:2:0
Bit depth : 8 bits
Scan type : Progressive
Bits/(Pixel*Frame) : 0.122
Stream size : 907 MiB (76%)
Writing library : x264 core 148 r2638 7599210
Encoding settings : cabac=1 / ref=12 / deblock=1:-3:-3 / analyse=0x3:0x113 / me=umh / subme=9 / psy=1 / psy_rd=1.00:0.00 / mixed_ref=1 / me_range=32 / chroma_me=1 / trellis=2 / 8x8dct=1 / cqm=0 / deadzone=21,11 / fast_pskip=1 / chroma_qp_offset=-2 / threads=12 / lookahead_threads=3 / sliced_threads=0 / nr=0 / decimate=1 / interlaced=0 / bluray_compat=0 / constrained_intra=0 / bframes=12 / b_pyramid=2 / b_adapt=2 / b_bias=10 / direct=1 / weightb=0 / open_gop=0 / weightp=2 / keyint=240 / keyint_min=25 / scenecut=40 / intra_refresh=0 / rc_lookahead=40 / rc=2pass / mbtree=1 / bitrate=1345 / ratetol=1.0 / qcomp=0.85 / qpmin=0 / qpmax=69 / qpstep=4 / cplxblur=20.0 / qblur=0.5 / ip_ratio=1.40 / aq=1:1.00
Language : English
Default : Yes
Forced : No
Audio
ID : 2
Format : AC-3
Format/Info : Audio Coding 3
Mode extension : CM (complete main)
Format settings, Endianness : Big
Codec ID : A_AC3
Duration : 1 h 36 min
Bit rate mode : Constant
Bit rate : 384 kb/s
Channel(s) : 6 channels
Channel positions : Front: L C R, Side: L R, LFE
Sampling rate : 48.0 kHz
Frame rate : 31.250 FPS (1536 spf)
Compression mode : Lossy
Stream size : 266 MiB (22%)
Language : Russian
Default : No
Forced : No



   Похожие торренты   Торрент   Размер 
В этой теме нет новых непрочитанных сообщений. Ночные стражи (2016) WEB-DLRip от New-Team | iTunes

353 | 39

1.45 ГБ

В этой теме нет новых непрочитанных сообщений. Ночные стражи (2016) WEB-DLRip от GeneralFilm | iTunes

587 | 42

1.45 ГБ

В этой теме нет новых непрочитанных сообщений. Ночные стражи (2016) WEB-DLRip от New-Team | iTunes

126 | 0

743.01 МБ

В этой теме нет новых непрочитанных сообщений. Ночные стражи (2016) WEB-DLRip от Generalfilm | КПК | iTunes

185 | 11

402.15 МБ

В этой теме нет новых непрочитанных сообщений. Ночные стражи (2016) WEB-DLRip от ExKinoRay | iTunes

284 | 26

1.46 ГБ

В этой теме нет новых непрочитанных сообщений. Ночные стражи (2016) WEB-DLRip от MegaPeer | iTunes

60 | 1

745.54 МБ

В этой теме нет новых непрочитанных сообщений. Ночные стражи (2016) HDTVRip

15050 | 741

1.37 ГБ




Вы не можете начинать темы
Вы не можете отвечать на сообщения
Вы не можете редактировать свои сообщения
Вы не можете удалять свои сообщения
Вы не можете добавлять вложения

Перейти:  
Для Мосгорсуда, Роскомнадзора и рекламодателей: mosgorsud-torrent[собачка]yandex.ru
 Вход
ppkBB3cker v.2 © 2008-2014 @ PPK
[ Time : 0.043s | 15 Queries | GZIP : Off ]

Торрент трекер RUTOR.IN, Не можете зайти на rutor.org? Какой новый адрес рутор? Какое зеркало рутор? Не работает rutor.org и зеркала? Тогда наш торрент специально для вас. Rutor.in неофициальное зеркало rutor. В случае если у Вас заблокирован rutor или вдруг Вы не можете на него зайти, то Вы без труда сможете скачать бесплатно и без рекламы последние новинки кино, игр, сериалов и прочего у нас, на Rutor.in. Не нужно использовать прокси, чтобы зайти на рутор, достаточно воспользоваться нашим ресурсом. Все новые фильмы, игры, сериалы, книги и музыка за 2013 и 2014 годы через торрент бесплатно. Скачивайте фильмы в хорошем качестве, игры для пк, xbox, playstation без регистрации. У нас вы найдете новые Зарубежные сериалы и Русские сериалы 2013, 2014, 2015 годов. Оставайтесь с нами, качайте любимые фильмы, игры, сериалы, книги и музыку.