img image001 image001 image001 image001 image001 image001 image001 image001 image001 image001 image001 image001 image001 image001 image001

Planets Sun Sun Sun
Статистика раздачи
Автор: PriZraK | Размер: 747.05 МБ | Добавлен: 11 окт 2016
Раздают: 17    Качают: 6
Скачать торрент
Скачать торрент
Описание торрента

СообщениеДобавлено: 11 окт 2016 


Информация о фильме
Название: Русское чудо
Год выхода: 1994
Жанр: Комедия
Режиссёр: Михаил Кокшенов
В ролях: Михаил Кокшенов, Семен Фарада, Наталья Крачковская, Леонид Куравлёв, Рудольф Рудин, Татьяна Кравченко, Вадим Захарченко, Евгений Марченко, Валерий Носик, Владимир Кондратьев
О фильме: Предприимчивый Иван решает организовать гастроли в Америке знаменитого русского экстрасенса Юрия Кошмаровского и подзаработать немного «зеленых». Однако, перед самым вылетом обнаруживается, что маэстро попал в больницу. Ну не отменять же выступления из-за такого пустяка! К счастью, в аэропорт Ивана провожала тетя Катя с мужем Петей, который, как оказалось, почти двойник Кошмаровского...

Страна: Россия
Студия: Рубиз, Саби
Продолжительность: 01:15:49
Перевод: Не требуется (оригинальный)
Файл
Формат: avi
Качество: DVDRip (DVD5)
Видео: XviD, 624х480, 25fps, 1240kbps
Аудио: MPEG Layer 3, 2ch, 48000Hz, 128kbps

General
Complete name : Russkoe.Chudo.1994.O.DVDRip.700.CurHaJI.avi
Format : AVI
Format/Info : Audio Video Interleave
File size : 747 MiB
Duration : 1h 15mn
Overall bit rate : 1 377 Kbps
Movie name : Russkoe.Chudo.1994.O.DVDRip.700.CurHaJI
Writing application : VirtualDubMod 1.5.10.3 | www.virtualdub-fr.org || (build 2550/release)
Writing library : VirtualDub build 35491/release
Video
ID : 0
Format : MPEG-4 Visual
Format profile : Advanced Simple@L5
Format settings, BVOP : 2
Format settings, QPel : No
Format settings, GMC : No warppoints
Format settings, Matrix : Custom
Codec ID : XVID
Codec ID/Hint : XviD
Duration : 1h 15mn
Bit rate : 1 240 Kbps
Width : 624 pixels
Height : 480 pixels
Display aspect ratio : 4:3
Frame rate : 25.000 fps
Color space : YUV
Chroma subsampling : 4:2:0
Bit depth : 8 bits
Scan type : Progressive
Compression mode : Lossy
Bits/(Pixel*Frame) : 0.166
Stream size : 672 MiB (90%)
Writing library : XviD 73
Audio
ID : 1
Format : MPEG Audio
Format version : Version 1
Format profile : Layer 3
Codec ID : 55
Codec ID/Hint : MP3
Duration : 1h 15mn
Bit rate mode : Constant
Bit rate : 128 Kbps
Channel(s) : 2 channels
Sampling rate : 48.0 KHz
Compression mode : Lossy
Stream size : 69.4 MiB (9%)
Alignment : Aligned on interleaves
Interleave, duration : 40 ms (1.00 video frame)
Interleave, preload duration : 504 ms
Writing library : LAME3.99r
Encoding settings : -m s -V 4 -q 2 -lowpass 17 -b 128


Релиз от:



   Похожие торренты   Торрент   Размер 
В этой теме нет новых непрочитанных сообщений. Русское чудо (1994) DVDRip от Alekxandr48

52 | 9

701.84 МБ

В этой теме нет новых непрочитанных сообщений. Русское экономическое чудо [01-10 из 10] (2007) DVDRip

38 | 4

4.08 ГБ

В этой теме нет новых непрочитанных сообщений. Русское экономическое чудо. Страницы истории [01-10 из 10] (2007) DVDRip от SilverCinema

9 | 3

2.92 ГБ

В этой теме нет новых непрочитанных сообщений. Итальянское чудо / Miracolo italiano (1994) DVDRip | A

157 | 56

1.45 ГБ

В этой теме нет новых непрочитанных сообщений. Чудо на Первой улице / Чудо c Первой улицы / Miracle on 1st street / 1Beonga-ui gijeok (2007) DVDRip | L1

13 | 1

1.47 ГБ

В этой теме нет новых непрочитанных сообщений. Чудо на 34-й улице / Miracle on 34th Street (1994) BDRemux

0 | 3

29.39 ГБ

В этой теме нет новых непрочитанных сообщений. Чудо на 34-й улице / Miracle on 34th Street (1994) BDRip - marcury

132 | 10

1.45 ГБ




Вы не можете начинать темы
Вы не можете отвечать на сообщения
Вы не можете редактировать свои сообщения
Вы не можете удалять свои сообщения
Вы не можете добавлять вложения

Перейти:  
Для Мосгорсуда, Роскомнадзора и рекламодателей: mosgorsud-torrent[собачка]yandex.ru
 Вход
ppkBB3cker v.2 © 2008-2014 @ PPK
[ Time : 0.332s | 14 Queries | GZIP : Off ]

Торрент трекер RUTOR.IN, Не можете зайти на rutor.org? Какой новый адрес рутор? Какое зеркало рутор? Не работает rutor.org и зеркала? Тогда наш торрент специально для вас. Rutor.in неофициальное зеркало rutor. В случае если у Вас заблокирован rutor или вдруг Вы не можете на него зайти, то Вы без труда сможете скачать бесплатно и без рекламы последние новинки кино, игр, сериалов и прочего у нас, на Rutor.in. Не нужно использовать прокси, чтобы зайти на рутор, достаточно воспользоваться нашим ресурсом. Все новые фильмы, игры, сериалы, книги и музыка за 2013 и 2014 годы через торрент бесплатно. Скачивайте фильмы в хорошем качестве, игры для пк, xbox, playstation без регистрации. У нас вы найдете новые Зарубежные сериалы и Русские сериалы 2013, 2014, 2015 годов. Оставайтесь с нами, качайте любимые фильмы, игры, сериалы, книги и музыку.