img image001 image001 image001 image001 image001 image001 image001 image001 image001 image001 image001 image001 image001 image001 image001

Planets Sun Sun Sun
Статистика раздачи
Автор: Nickolas3434 | Размер: 1.37 ГБ | Добавлен: 15 окт 2016
Раздают: 11    Качают: 1
Скачать торрент
Скачать торрент
Описание торрента

СообщениеДобавлено: 15 окт 2016 

Информация о фильме
Название: Дизлайк
Оригинальное название: Дизлайк
Жанр: Ужасы
Режиссер: Павел Руминов
Актеры: Мария Вэй, Анастасия Акатова, Диана Мелисон, Олег Гаас, Евгений Дакот, Александр Панин, Никита Московой, Андрей Шугов, Сергей Волков
Описание:
Они — кумиры миллионов, рок-звезды нового поколения! В свои 18-20 лет они зарабатывают за день, сколько их родители за несколько месяцев. Их видео собирают сотни тысяч «лайков», и не важно, разыгрывают ли они прохожих, рассказывают о кино и моде или снимают «вайны». Они — топовые видеоблогеры, за которыми охотятся рекламные агенты, мечтающие через новых звезд Интернета рассказать о своих товарах миру. Восьмерых самых популярных видеоблогеров российского Интернета собрали в роскошном загородном коттедже, вдали от цивилизации и мобильных сетей на одну ночь, чтобы они продегустировали новый энергетический напиток. Но рекламная дегустация оказалась приманкой, а коттедж — ловушкой. Теперь они все — участники викторины, устроенной неизвестным маньяком, в которой звучит только один вопрос: «Кто заказал ваше убийство?». Каждый неправильный ответ будет стоить жизни одного из них. Сможет ли кто-то спастись или всем придет дизлайк?

Производство: Россия, STG Cinema
Продолжительность: 01:27:12
Перевод: Не требуется (русский) iTunes
Возраст: 18+ (зрителям, достигшим 18 лет. запрещено для детей)
Рейтинг MPAA: R (лицам до 17 лет обязательно присутствие взрослого)
Дата российской премьеры: 22 сентября 2016, «Двадцатый Век Фокс СНГ»
Вид субтитров: Отсутствуют
Реклама: Релиз без рекламы
Файл
Качество видео: WEB-DLRip-AVC
Формат: MKV
Видео: High@L4.1, 984x412, ~1861 Кбит/с
Аудио: AC3, 6 ch, 384 Кбит/с
General
Unique ID : 62767358872161410233505887209333772040 (0x2F388DB89C92310DA7F48D7A7804CF08)
Complete name : F:FILMSНОВЫЕДизлайк.(2016).WEB-DLRip-AVC.[-=DoMiNo=-].mkv
Format : Matroska
Format version : Version 4 / Version 2
File size : 1.37 GiB
Duration : 1 h 27 min
Overall bit rate : 2 248 kb/s
Movie name : Дизлайк
Deion : Они — кумиры миллионов, рок-звезды нового поколения! В свои 18-20 лет они зарабатывают за день, сколько их родители за несколько месяцев. Их видео собирают сотни тысяч «лайков», и не важно, разыгрывают ли они прохожих, рассказывают о кино и моде или снимают «вайны». Они — топовые видеоблогеры, за которыми охотятся рекламные агенты, мечтающие через новых звезд Интернета рассказать о своих товарах миру.Восьмерых самых популярных видеоблогеров российского Интернета собрали в роскошном загородном коттедже, вдали от цивилизации и мобильных сетей на одну ночь, чтобы они продегустировали новый энергетический напиток. Но рекламная дегустация оказалась приманкой, а коттедж — ловушкой. Теперь они все — участники викторины, устроенной неизвестным маньяком, в которой звучит только один вопрос: «Кто заказал ваше убийство?». Каждый неправильный ответ будет стоить жизни одного из них.Сможет ли кто-то спастись или всем придет дизлайк?
Writing application : XviD4PSP 7.0.304 DAILY
Writing library : Lavf57.41.100 / Lavf57.41.100
Cover : Yes
Attachments : cover.jpg
ACTORS : Мария Вэй, Анастасия Акатова, Диана Мелисон, Олег Гаас, Евгений Дакот, Александр Панин, Никита Московой, Андрей Шугов, Сергей Волков...
COUNTRY : Россия
DATE : 2016
DIRECTOR : Павел Руминов
ENCODING_INFO : MATROSKA,WEBM > MKV / H264 > X264 VBR-2P 1861kbps Произвольный / AC3 > COPY
GENRE : ужасы
HD_VIDEO : 1
IMDB_RATING : 3.20
ITUNEXTC : ru-movie|18+|400|
MEDIA_TYPE : 9
PRODUCER : Павел Руминов, Иван Капитонов
RATING : 1.414
WRITER : Павел Руминов, Евгений Колядинцев
Video
ID : 1
Format : AVC
Format/Info : Advanced Video Codec
Format profile : High@L4.1
Format settings, CABAC : Yes
Format settings, ReFrames : 12 frames
Codec ID : V_MPEG4/ISO/AVC
Duration : 1 h 27 min
Bit rate : 1 861 kb/s
Width : 984 pixels
Height : 412 pixels
Display aspect ratio : 2.40:1
Frame rate mode : Constant
Frame rate : 24.000 FPS
Color space : YUV
Chroma subsampling : 4:2:0
Bit depth : 8 bits
Scan type : Progressive
Bits/(Pixel*Frame) : 0.191
Stream size : 1.11 GiB (81%)
Title : Dislike_RIP_[-=DoMiNo=-]
Writing library : x264 core 148 r2721M 72d53ab
Encoding settings : cabac=1 / ref=12 / deblock=1:-3:-3 / analyse=0x3:0x133 / me=umh / subme=11 / psy=1 / psy_rd=1.00:0.10 / mixed_ref=1 / me_range=48 / chroma_me=1 / trellis=2 / 8x8dct=1 / cqm=0 / deadzone=21,11 / fast_pskip=0 / chroma_qp_offset=-3 / threads=5 / lookahead_threads=1 / sliced_threads=0 / nr=0 / decimate=1 / interlaced=0 / bluray_compat=0 / constrained_intra=0 / bframes=11 / b_pyramid=2 / b_adapt=2 / b_bias=0 / direct=3 / weightb=1 / open_gop=0 / weightp=2 / keyint=240 / keyint_min=24 / scenecut=40 / intra_refresh=0 / rc_lookahead=60 / rc=2pass / mbtree=1 / bitrate=1861 / ratetol=1.0 / qcomp=0.70 / qpmin=0 / qpmax=69 / qpstep=4 / cplxblur=20.0 / qblur=0.5 / ip_ratio=1.40 / aq=1:1.00
Language : Russian
Default : Yes
Forced : No
Color range : Limited
Color primaries : BT.709
Transfer characteristics : BT.709
Matrix coefficients : BT.709
DURATION : 01:27:12.917000000
Audio
ID : 2
Format : AC-3
Format/Info : Audio Coding 3
Mode extension : CM (complete main)
Format settings, Endianness : Big
Codec ID : A_AC3
Duration : 1 h 27 min
Bit rate mode : Constant
Bit rate : 384 kb/s
Channel(s) : 6 channels
Channel positions : Front: L C R, Side: L R, LFE
Sampling rate : 48.0 kHz
Frame rate : 31.250 FPS (1536 spf)
Bit depth : 32 bits
Compression mode : Lossy
Stream size : 240 MiB (17%)
Title : DUB_iTunes
Language : Russian
Default : Yes
Forced : No
DURATION : 01:27:12.960000000
Menu
00:00:00.000 : :1
00:05:19.000 : :2
00:10:29.958 : :3
00:15:36.124 : :4
00:20:44.915 : :5
00:25:49.790 : :6
00:31:25.665 : :7
00:36:50.540 : :8
00:42:19.540 : :9
00:47:38.915 : :10
00:53:36.748 : :11
00:59:16.831 : :12
01:05:50.789 : :13
01:11:25.497 : :14
01:16:32.038 : :15
01:22:47.413 : :16



   Похожие торренты   Торрент   Размер 
В этой теме нет новых непрочитанных сообщений. Дизлайк (2016) WEB-DLRip | iTunes

325 | 1

1.37 ГБ

В этой теме нет новых непрочитанных сообщений. Дизлайк (2016) WEB-DL 1080p | iTunes

79 | 0

3.05 ГБ

В этой теме нет новых непрочитанных сообщений. Дизлайк (2016) WEB-DL 720p | iTunes

53 | 0

2.74 ГБ

В этой теме нет новых непрочитанных сообщений. Дизлайк (2016) WEB-DLRip

15 | 0

699.46 МБ

В этой теме нет новых непрочитанных сообщений. Дизлайк (2016) CAMRip

15 | 0

1.37 ГБ

В этой теме нет новых непрочитанных сообщений. Рай (2016) WEB-DLRip | iTunes

2969 | 151

1.37 ГБ

В этой теме нет новых непрочитанных сообщений. Рай (2016) WEB-DLRip | iTunes

301 | 2

2.05 ГБ




Вы не можете начинать темы
Вы не можете отвечать на сообщения
Вы не можете редактировать свои сообщения
Вы не можете удалять свои сообщения
Вы не можете добавлять вложения

Перейти:  
Для Мосгорсуда, Роскомнадзора и рекламодателей: mosgorsud-torrent[собачка]yandex.ru
 Вход
ppkBB3cker v.2 © 2008-2014 @ PPK
[ Time : 0.054s | 15 Queries | GZIP : Off ]

Торрент трекер RUTOR.IN, Не можете зайти на rutor.org? Какой новый адрес рутор? Какое зеркало рутор? Не работает rutor.org и зеркала? Тогда наш торрент специально для вас. Rutor.in неофициальное зеркало rutor. В случае если у Вас заблокирован rutor или вдруг Вы не можете на него зайти, то Вы без труда сможете скачать бесплатно и без рекламы последние новинки кино, игр, сериалов и прочего у нас, на Rutor.in. Не нужно использовать прокси, чтобы зайти на рутор, достаточно воспользоваться нашим ресурсом. Все новые фильмы, игры, сериалы, книги и музыка за 2013 и 2014 годы через торрент бесплатно. Скачивайте фильмы в хорошем качестве, игры для пк, xbox, playstation без регистрации. У нас вы найдете новые Зарубежные сериалы и Русские сериалы 2013, 2014, 2015 годов. Оставайтесь с нами, качайте любимые фильмы, игры, сериалы, книги и музыку.