img image001 image001 image001 image001 image001 image001 image001 image001 image001 image001 image001 image001 image001 image001 image001

Planets Sun Sun Sun
Статистика раздачи
Автор: Nickolas3434 | Размер: 5.02 ГБ | Добавлен: 16 окт 2016
Раздают: 46    Качают: 0
Скачать торрент
Скачать торрент
Описание торрента

СообщениеДобавлено: 16 окт 2016 


Информация о фильме
Название: Статус: Свободен
Год выхода: 2015
Жанр: Комедия, мелодрама
Режиссер: Павел Руминов
В ролях: Данила Козловский, Елизавета Боярская, Владимир Селезнёв (II), Игорь Войнаровский, Наталья Анисимова, Паулина Андреева, Надежда Звенигородская, Милош Руминов, Михаил Крылов, Катрин Асси
О фильме:
Никита и Афина — идеальная пара… Как палочки Твикс. Как Бред Питт и Анджелина Джоли. Но… только по мнению Никиты. Внезапно Афина сообщает, что уходит от него. Причем — к 40-летнему стоматологу. Никита не согласен с таким поворотом судьбы и обещает Афине, что вернет ее за неделю. Что готов сделать отчаянный стэндапер, чтобы вернуть свою любовь?

Страна: Россия
Студия: Кинокомпания «Леополис»
Продолжительность: 01:32:48
Перевод: Не требуется
Файл
Кодек: h.264
Качество: HDTV 1080i
Видео: MPEG-4 AVC, ~ 6782 Кбит/с, 1920x1080, 25.000 кадр/с
Звук:
Русский (AC3, 6 ch, 384 Кбит/с)
Русский (MP2, 2 ch, 192 Кбит/с)
Семпл
Автор релиза - Silverok, первоисточник - Amedia Premium HD

General
ID : 1 (0x1)
Complete name : D:uTorrentStatus_svoboden.2015.HDTV.1080i.MediaClub.ts
Format : MPEG-TS
File size : 5.02 GiB
Duration : 1 h 32 min
Overall bit rate mode : Variable
Overall bit rate : 7 746 kb/s
Video
ID : 303 (0x12F)
Menu ID : 26003 (0x6593)
Format : AVC
Format/Info : Advanced Video Codec
Format profile : High@L4
Format settings, CABAC : Yes
Format settings, ReFrames : 4 frames
Codec ID : 27
Duration : 1 h 32 min
Bit rate : 6 782 kb/s
Width : 1 920 pixels
Height : 1 080 pixels
Display aspect ratio : 16:9
Frame rate : 25.000 FPS
Standard : Component
Color space : YUV
Chroma subsampling : 4:2:0
Bit depth : 8 bits
Scan type : Interlaced
Scan type, store method : Separated fields
Scan order : Top Field First
Bits/(Pixel*Frame) : 0.131
Stream size : 4.40 GiB (88%)
Color range : Limited
Color primaries : BT.709
Transfer characteristics : BT.709
Matrix coefficients : BT.709
Audio #1
ID : 403 (0x193)
Menu ID : 26003 (0x6593)
Format : AC-3
Format/Info : Audio Coding 3
Mode extension : CM (complete main)
Format settings, Endianness : Big
Codec ID : 6
Duration : 1 h 32 min
Bit rate mode : Constant
Bit rate : 384 kb/s
Channel(s) : 6 channels
Channel positions : Front: L C R, Side: L R, LFE
Sampling rate : 48.0 kHz
Frame rate : 31.250 FPS (1536 spf)
Compression mode : Lossy
Delay relative to video : -40 ms
Stream size : 255 MiB (5%)
Language : Russian
Audio #2
ID : 404 (0x194)
Menu ID : 26003 (0x6593)
Format : MPEG Audio
Format version : Version 1
Format profile : Layer 2
Codec ID : 3
Duration : 1 h 32 min
Bit rate mode : Constant
Bit rate : 192 kb/s
Channel(s) : 2 channels
Sampling rate : 48.0 kHz
Compression mode : Lossy
Delay relative to video : -40 ms
Stream size : 127 MiB (2%)
Language : English
Text
ID : 405 (0x195)-888
Menu ID : 26003 (0x6593)
Format : Teletext Subtitle
Language : Russian


Релиз от: | Silverok



   Похожие торренты   Торрент   Размер 
В этой теме нет новых непрочитанных сообщений. Статус: Свободен (2015) WEB-DL 720p | iTunes

10296 | 255

3.08 ГБ

В этой теме нет новых непрочитанных сообщений. Статус: Свободен (2015) WEB-DLRip-AVC | iTunes

4554 | 286

1.46 ГБ

В этой теме нет новых непрочитанных сообщений. Статус: Свободен (2015) WEB-DLRip | iTunes

24138 | 556

1.46 ГБ

В этой теме нет новых непрочитанных сообщений. Статус: Свободен (2015) WEB-DLRip от Scarabey | iTunes

4862 | 124

1.45 ГБ

В этой теме нет новых непрочитанных сообщений. Статус: Свободен (2015) WEB-DLRip от Scarabey | iTunes

1630 | 158

744.89 МБ

В этой теме нет новых непрочитанных сообщений. Статус: Свободен (2015) WEB-DLRip-AVC от Scarabey | iTunes

5732 | 133

1.95 ГБ

В этой теме нет новых непрочитанных сообщений. Статус: Свободен (2015) WEB-DLRip-AVC от ExKinoRay | iTunes

2020 | 35

744.34 МБ




Вы не можете начинать темы
Вы не можете отвечать на сообщения
Вы не можете редактировать свои сообщения
Вы не можете удалять свои сообщения
Вы не можете добавлять вложения

Перейти:  
Для Мосгорсуда, Роскомнадзора и рекламодателей: mosgorsud-torrent[собачка]yandex.ru
 Вход
ppkBB3cker v.2 © 2008-2014 @ PPK
[ Time : 0.024s | 15 Queries | GZIP : Off ]

cron