img image001 image001 image001 image001 image001 image001 image001 image001 image001 image001 image001 image001 image001 image001 image001

Planets Sun Sun Sun
Статистика раздачи
Автор: Nickolas3434 | Размер: 698.79 МБ | Добавлен: 18 окт 2016
Раздают: 6    Качают: 1
Скачать торрент
Скачать торрент
Описание торрента

СообщениеДобавлено: 18 окт 2016 


Название: Перед экзаменом
Год выхода: 1977
Жанр: мелодрама, драма, экранизация
Режиссёр: Вячеслав Криштофович
В ролях: Ольга Жулина, Игорь Кваша, Алла Покровская, Лариса Удовиченко, Татьяна Аксюта, Сергей Иванов, Маргарита Криницына, Василий Корзун, Евгений Буренков и другие
О фильме:
Телефильм по рассказу Виктории Токаревой "Инструктор по плаванию" .
Поругавшись с мамой и подругой героиня бредет по улице и незнакомка отдает ей даром билет в театр. На спектакле рядом с героиней сидит тот (Иван), с кем не пошла на спектакль незнакомка. Юная Таня Гусакова на распутье: родители настаивают, чтобы она поступала в педагогический институт. Но когда тебе 18, кажется, что весь мир у твоих ног. Поэтому, в ночь перед экзаменом девушка принимает важное решение...

Доп. информация:
Сценарист: Виктория Токарева
Оператор: Василий Трушковский
Композитор: Вадим Храпачев
Художник: Сергей Бржестовский
Страна: СССР
Производство: Киностудия им. А.Довженко
Год: 1977
Премьера: 3 мая 1978 (ТВ)
Продолжительность: 01:04:26
Файл:
Кодек: AVI
Качество: SATRip
Видео: Xvid 704x528 25fps 1378kbps
Звук: MP3 48000Hz stereo 128kbps
Формат : AVI
Формат/Информация : Audio Video Interleave
Размер файла : 699 Мбайт
Продолжительность : 1 ч. 4 м.
Общий поток : 1516 Кбит/сек
Программа кодирования : VirtualDubMod 1.5.10.2 (build 2540/release)
Библиотека кодирования : VirtualDubMod build 2540/release
Видео
Идентификатор : 0
Формат : MPEG-4 Visual
Профиль формата : Advanced Simple@L5
Параметр BVOP формата : 1
Параметр GMC формата : Без точки перехода
Параметр матрицы формата : Default (MPEG)
Идентификатор кодека : XVID
Идентификатор кодека/Подсказка : XviD
Продолжительность : 1 ч. 4 м.
Ширина : 704 пикселя
Соотношение сторон : 4:3
Частота кадров : 25,000 кадров/сек
Цветовое пространство : YUV
Битовая глубина : 8 бит
Метод сжатия : С потерями
Бит/(Пиксели*Кадры) : 0.148
Размер потока : 635 Мбайт (91%)
Библиотека кодирования : XviD 1.2.1 (UTC 2008-12-04)
Аудио
Идентификатор : 1
Формат : MPEG Audio
Версия формата : Version 1
Профиль формата : Layer 3
Идентификатор кодека : 55
Идентификатор кодека/Подсказка : MP3
Продолжительность : 1 ч. 4 м.
Вид битрейта : Постоянный
Битрейт : 128 Кбит/сек
Каналы : 2 канала
Частота : 48,0 КГц
Метод сжатия : С потерями
Размер потока : 59,0 Мбайт (8%)
Выравнивание : Соединение по промежуткам
Продолжительность промежутка : 40 мс. (1,00 видеокадр)
Время предзагрузки промежутка : 504 мс.
Библиотека кодирования : LAME3.98r
Настройки программы : -m s -V 4 -q 2 -lowpass 17 -b 128





   Похожие торренты   Торрент   Размер 
В этой теме нет новых непрочитанных сообщений. Ночь перед экзаменом – Сегодня / Notte prima degli esami - Oggi (2007) DVDRip от Киномагия

67 | 8

1.37 ГБ

В этой теме нет новых непрочитанных сообщений. Ночь перед экзаменом – Сегодня / Notte prima degli esami - Oggi (2007) DVDRip от Киномагия

17 | 1

700.46 МБ

В этой теме нет новых непрочитанных сообщений. Покорители гор (1977) SATRip

131 | 3

250.6 МБ

В этой теме нет новых непрочитанных сообщений. Приезжая (1977) SATRip

365 | 31

1.46 ГБ

В этой теме нет новых непрочитанных сообщений. Приезжая (1977) SATRip

10 | 10

1.28 ГБ

В этой теме нет новых непрочитанных сообщений. Доброта (1977) SATRip

408 | 12

1.07 ГБ

В этой теме нет новых непрочитанных сообщений. Берега [01-07 из 07] (1977) SATRip от New-Team

39 | 27

6.63 ГБ




Вы не можете начинать темы
Вы не можете отвечать на сообщения
Вы не можете редактировать свои сообщения
Вы не можете удалять свои сообщения
Вы не можете добавлять вложения

Перейти:  
Для Мосгорсуда, Роскомнадзора и рекламодателей: mosgorsud-torrent[собачка]yandex.ru
 Вход
ppkBB3cker v.2 © 2008-2014 @ PPK
[ Time : 0.602s | 16 Queries | GZIP : On ]

Торрент трекер RUTOR.IN, Не можете зайти на rutor.org? Какой новый адрес рутор? Какое зеркало рутор? Не работает rutor.org и зеркала? Тогда наш торрент специально для вас. Rutor.in неофициальное зеркало rutor. В случае если у Вас заблокирован rutor или вдруг Вы не можете на него зайти, то Вы без труда сможете скачать бесплатно и без рекламы последние новинки кино, игр, сериалов и прочего у нас, на Rutor.in. Не нужно использовать прокси, чтобы зайти на рутор, достаточно воспользоваться нашим ресурсом. Все новые фильмы, игры, сериалы, книги и музыка за 2013 и 2014 годы через торрент бесплатно. Скачивайте фильмы в хорошем качестве, игры для пк, xbox, playstation без регистрации. У нас вы найдете новые Зарубежные сериалы и Русские сериалы 2013, 2014, 2015 годов. Оставайтесь с нами, качайте любимые фильмы, игры, сериалы, книги и музыку.