img image001 image001 image001 image001 image001 image001 image001 image001 image001 image001 image001 image001 image001 image001 image001

Planets Sun Sun Sun
Статистика раздачи
Автор: Nickolas3434 | Размер: 1.45 ГБ | Добавлен: 18 окт 2016
Раздают: 45    Качают: 0
Скачать торрент
Скачать торрент
Описание торрента

СообщениеДобавлено: 18 окт 2016 


Информация о фильме
Название: Всё о мужчинах
Год выпуска: 2016
Жанр: Комедия
Режиссеры: Михаил Жерневский, Леонид Марголин
В ролях: Дмитрий Нагиев, Анна Хилькевич, Игорь Верник, Сергей Белоголовцев, Грант Тохатян, Владимир Епифанцев, Екатерина Скулкина, Елена Борщева, Виктор Степанян, Ян Цапник
О фильме:
Это история о том, какими разными могут быть мужчины. О том, что мужчины — это, в первую очередь, сложные решения и настоящие поступки. О том, в чем мужчины могут быть сильны, а в чем комичны. О том, за что их можно и нужно любить...

Страна: Россия
Студия: Enjoy Movies, Fresh Film
Продолжительность: 01:18:52
Перевод: Не требуется (русский) | Лицензия
Файл
Формат: AVI
Качество: BDRip
Видео: XviD build 73, 720x304 (2.35:1), 24.000 fps, 1989 Kbps (0.379 bit/pixel)
Звук: 48.0 kHz, AC3 Dolby Digital, 5/1 (L C R, Side: L R, LFE) ch, 640 kbps
General
Complete name : Vse.o.Muzhchinah.2016.XviD.1.45Gb.BDRip.by.GeneralFilm.avi
Format : AVI
Format/Info : Audio Video Interleave
File size : 1.45 GiB
Duration : 1h 18mn
Overall bit rate : 2 638 Kbps
Writing application : VirtualDubMod 1.5.10.3 | www.virtualdub-fr.org || (build 2550/release)
Writing library : VirtualDubMod build 2550/release
Video
ID : 0
Format : MPEG-4 Visual
Format profile : Advanced Simple@L5
Format settings, BVOP : 1
Format settings, QPel : No
Format settings, GMC : No warppoints
Format settings, Matrix : Custom
Codec ID : XVID
Codec ID/Hint : XviD
Duration : 1h 18mn
Bit rate : 1 989 Kbps
Width : 720 pixels
Height : 304 pixels
Display aspect ratio : 2.35:1
Frame rate : 24.000 fps
Color space : YUV
Chroma subsampling : 4:2:0
Bit depth : 8 bits
Scan type : Progressive
Compression mode : Lossy
Bits/(Pixel*Frame) : 0.379
Stream size : 1.09 GiB (75%)
Writing library : XviD 73
Audio
ID : 1
Format : AC-3
Format/Info : Audio Coding 3
Mode extension : CM (complete main)
Format settings, Endianness : Big
Codec ID : 2000
Duration : 1h 18mn
Bit rate mode : Constant
Bit rate : 640 Kbps
Channel(s) : 6 channels
Channel positions : Front: L C R, Side: L R, LFE
Sampling rate : 48.0 KHz
Frame rate : 31.250 fps (1536 spf)
Compression mode : Lossy
Stream size : 361 MiB (24%)
Alignment : Split accross interleaves
Interleave, duration : 42 ms (1.00 video frame)
Interleave, preload duratio : 500 ms




Релиз от:
Исходник: VSE_O_MUZCHINAH_HDCLUB



   Похожие торренты   Торрент   Размер 
В этой теме нет новых непрочитанных сообщений. Всё о мужчинах (2016) BDRip от GeneralFilm | Лицензия

2 | 0

742.83 МБ

В этой теме нет новых непрочитанных сообщений. Все о мужчинах (2016) BDRip от HQCLUB | Лицензия

90 | 4

1.45 ГБ

В этой теме нет новых непрочитанных сообщений. Всё о мужчинах (2016) BDRip 720p | Лицензия

70 | 1

4.43 ГБ

В этой теме нет новых непрочитанных сообщений. Всё о мужчинах (2016) BDRip 1080p | Лицензия

46 | 0

7.67 ГБ

В этой теме нет новых непрочитанных сообщений. Все о мужчинах (2016) BDRip-AVC от NNNB | Лицензия

73 | 2

1.46 ГБ

В этой теме нет новых непрочитанных сообщений. Всё о мужчинах (2016) BDRip от ExKinoRay | Лицензия

27 | 0

1.46 ГБ

В этой теме нет новых непрочитанных сообщений. Все о мужчинах (2016) BDRip-AVC от New-Team | Лицензия

63 | 0

1.46 ГБ




Вы не можете начинать темы
Вы не можете отвечать на сообщения
Вы не можете редактировать свои сообщения
Вы не можете удалять свои сообщения
Вы не можете добавлять вложения

Перейти:  
Для Мосгорсуда, Роскомнадзора и рекламодателей: mosgorsud-torrent[собачка]yandex.ru
 Вход
ppkBB3cker v.2 © 2008-2014 @ PPK
[ Time : 0.037s | 13 Queries | GZIP : Off ]
CGP output time : 0.064s | 5 Queries | GZIP : Off

Торрент трекер RUTOR.IN, Не можете зайти на rutor.org? Какой новый адрес рутор? Какое зеркало рутор? Не работает rutor.org и зеркала? Тогда наш торрент специально для вас. Rutor.in неофициальное зеркало rutor. В случае если у Вас заблокирован rutor или вдруг Вы не можете на него зайти, то Вы без труда сможете скачать бесплатно и без рекламы последние новинки кино, игр, сериалов и прочего у нас, на Rutor.in. Не нужно использовать прокси, чтобы зайти на рутор, достаточно воспользоваться нашим ресурсом. Все новые фильмы, игры, сериалы, книги и музыка за 2013 и 2014 годы через торрент бесплатно. Скачивайте фильмы в хорошем качестве, игры для пк, xbox, playstation без регистрации. У нас вы найдете новые Зарубежные сериалы и Русские сериалы 2013, 2014, 2015 годов. Оставайтесь с нами, качайте любимые фильмы, игры, сериалы, книги и музыку.