img image001 image001 image001 image001 image001 image001 image001 image001 image001 image001 image001 image001 image001 image001 image001

Planets Sun Sun Sun
Статистика раздачи
Автор: Nickolas3434 | Размер: 1.46 ГБ | Добавлен: 18 окт 2016
Раздают: 249    Качают: 23
Скачать торрент
Скачать торрент
Описание торрента

СообщениеДобавлено: 18 окт 2016 


Информация о фильме
Название: Училка
Год выпуска: 2015
Жанр: Драма
Режиссер: Алексей Петрухин
В ролях: Ирина Купченко, Анна Чурина, Роза Хайруллина, Андрей Мерзликин, Алиса Гребенщикова, Ольга Егорова, Анастасия Пономарева, Дарья Дубникова, Акмал Аблаев, Алексей Лукин, Валентин Садики, Василиса Елпатьевская, Марк Тюриков, Алексей Огурцов, Руслан Калимуллин
О фильме:
Внезапную тишину школьных коридоров оглашает выстрел. Доведенная до крайности учительница истории берет в заложники целый класс. Но вскоре ситуация в корне меняется и заложницей становится она сама…

Страна: Россия
Студия: Russian Film Group, Startfilm Group
Продолжительность: 02:06:55
Перевод: Не требуется (русский) | iTunes
Файл
Формат: AVI
Качество: BDRip
Видео: XviD build 73, 720x400 (16:9), 25.000 fps, 1248 Kbps (0.173 bit/pixel)
Звук: 48.0 kHz, AC3 Dolby Digital, 5/1 (L C R, Side: L R, LFE) ch, 384 kbps
General
Complete name : Uchilka.2016.XviD.WEB-DLRip.by.GeneralFilm.avi
Format : AVI
Format/Info : Audio Video Interleave
File size : 1.46 GiB
Duration : 2h 6mn
Overall bit rate : 1 641 Kbps
Writing application : VirtualDubMod 1.5.10.3 | www.virtualdub-fr.org || (build 2550/release)
Writing library : VirtualDubMod build 2550/release
Video
ID : 0
Format : MPEG-4 Visual
Format profile : Advanced Simple@L5
Format settings, BVOP : 1
Format settings, QPel : No
Format settings, GMC : No warppoints
Format settings, Matrix : Custom
Codec ID : XVID
Codec ID/Hint : XviD
Duration : 2h 6mn
Bit rate : 1 248 Kbps
Width : 720 pixels
Height : 400 pixels
Display aspect ratio : 16:9
Frame rate : 25.000 fps
Color space : YUV
Chroma subsampling : 4:2:0
Bit depth : 8 bits
Scan type : Progressive
Compression mode : Lossy
Bits/(Pixel*Frame) : 0.173
Stream size : 1.11 GiB (76%)
Writing library : XviD 73
Audio
ID : 1
Format : AC-3
Format/Info : Audio Coding 3
Mode extension : CM (complete main)
Format settings, Endianness : Big
Codec ID : 2000
Duration : 2h 6mn
Bit rate mode : Constant
Bit rate : 384 Kbps
Channel(s) : 6 channels
Channel positions : Front: L C R, Side: L R, LFE
Sampling rate : 48.0 KHz
Frame rate : 31.250 fps (1536 spf)
Compression mode : Lossy
Stream size : 349 MiB (23%)
Alignment : Split accross interleaves
Interleave, duration : 40 ms (1.00 video frame)
Interleave, preload duratio : 500 ms



Релиз от:
Исходник: Uchilka.2016.1080p.WEB-DL.Rus.HDCLUB



   Похожие торренты   Торрент   Размер 
В этой теме нет новых непрочитанных сообщений. Училка (2016) WEB-DLRip от Generalfilm | КПК | iTunes

173 | 16

528.4 МБ

В этой теме нет новых непрочитанных сообщений. Училка (2015) WEB-DLRip от MegaPeer | iTunes

85 | 2

2.18 ГБ

В этой теме нет новых непрочитанных сообщений. Училка (2015) WEB-DLRip от MegaPeer | iTunes

438 | 5

1.46 ГБ

В этой теме нет новых непрочитанных сообщений. Училка (2015) WEB-DLRip от Scarabey | iTunes

5470 | 181

1.45 ГБ

В этой теме нет новых непрочитанных сообщений. Училка (2015) WEB-DLRip-AVC от ExKinoRay | iTunes Russia

712 | 30

2.14 ГБ

В этой теме нет новых непрочитанных сообщений. Училка (2015) WEB-DL 720p | iTunes

435 | 39

4.05 ГБ

В этой теме нет новых непрочитанных сообщений. Училка (2015) WEB-DL 1080p | iTunes

675 | 36

4.94 ГБ




Вы не можете начинать темы
Вы не можете отвечать на сообщения
Вы не можете редактировать свои сообщения
Вы не можете удалять свои сообщения
Вы не можете добавлять вложения

Перейти:  
Для Мосгорсуда, Роскомнадзора и рекламодателей: mosgorsud-torrent[собачка]yandex.ru
 Вход
ppkBB3cker v.2 © 2008-2014 @ PPK
[ Time : 0.029s | 17 Queries | GZIP : Off ]

Торрент трекер RUTOR.IN, Не можете зайти на rutor.org? Какой новый адрес рутор? Какое зеркало рутор? Не работает rutor.org и зеркала? Тогда наш торрент специально для вас. Rutor.in неофициальное зеркало rutor. В случае если у Вас заблокирован rutor или вдруг Вы не можете на него зайти, то Вы без труда сможете скачать бесплатно и без рекламы последние новинки кино, игр, сериалов и прочего у нас, на Rutor.in. Не нужно использовать прокси, чтобы зайти на рутор, достаточно воспользоваться нашим ресурсом. Все новые фильмы, игры, сериалы, книги и музыка за 2013 и 2014 годы через торрент бесплатно. Скачивайте фильмы в хорошем качестве, игры для пк, xbox, playstation без регистрации. У нас вы найдете новые Зарубежные сериалы и Русские сериалы 2013, 2014, 2015 годов. Оставайтесь с нами, качайте любимые фильмы, игры, сериалы, книги и музыку.