img image001 image001 image001 image001 image001 image001 image001 image001 image001 image001 image001 image001 image001 image001 image001

Planets Sun Sun Sun
Статистика раздачи
Автор: PriZraK | Размер: 1.42 ГБ | Добавлен: 22 окт 2016
Раздают: 22    Качают: 25
Скачать торрент
Скачать торрент
Описание торрента

СообщениеДобавлено: 22 окт 2016 


Информация о фильме
Название: Эпилог
Год выхода: 1994
Жанр: драма
Режиссер: Игорь Добролюбов
В ролях: Эдуард Горячий, Валентин Белохвостик, Александра Климова, Геннадий Овсянников, Татьяна Мархель, Владимир Золотухин, Владимир Мищанчук, Михаил Петров, Александр Подобед, Мария Зинкевич, Анна Легчилова, Вера Кавалерова, Татьяна Алексеева, Таня Игнатова, Валерий Бондаренко, Александр Ткаченок, Анатолий Терпицкий, Арнольд Помазан, Евгения Ковалёва, Августин Милованов, Антонина Аксёнова, И. Дорофеева, Любовь Румянцева, Галина Толкачева, Андрей Дударенко
О фильме:
По произведениям Ивана Шамякина.
Герои фильма - представители творческой интеллигенции. Еще вчера их произведения считались национальным достоянием, однако, сейчас они оказались никому не нужны. Известный писатель Иван Андреевич вынужден зарабатывать на жизнь продажей собственных книг с именными автографами. Больше повезло его другу, знаменитому художнику Михаилу Антоновичу. Все его картины купил западный коллекционер. Но совсем невеселым получился банкет, устроенный художником по этому поводу...
Доп. информация:
Сценарий: Игорь Добролюбов, Иван Шамякин
Оператор: Александр Рудь
Композитор: Владимир Кондрусевич
Художники: Алим Матвейчук
Продюсер: Леонид Осененко
Производство: "Беларусьфильм"

Запись потока *.ts с наземного цифрового телеканала "Беларусь 3".
Благодарность: за помощь с недостающим материалом Bartimeyse и PavelDAS. Обоим большое спасибо!
Страна: Республика Беларусь
Студия: Беларусьфильм
Продолжительность: 01:24:18
Перевод: не требует
Язык оригинала: русский
Файл
Кодек: AVC (H264)
Качество: DVB
Видео: MPEG4 Video (H264) 720(785)x576 (49:36) 25fps, 2 114 kb/s
Звук: MPEG Audio 48000Hz stereo 256kbps
Семпл
Код:
General
Unique ID                      : 9504247131469318394581644486345846055 (0x726738FEDE0259DF325E5A4B9DD6D27)
Complete name                  : D:Новая  земля 2Художественные фильмыЭпилог (1994) Есть старый вариантЭпилог (1994).mkv
Format                         : Matroska
Format version                 : Version 2
File size                      : 1.42 GiB
Duration                       : 1 h 24 min
Overall bit rate               : 2 418 kb/s
Writing application            : Lavf52.64.2
Writing library                : Lavf52.64.2
Video
ID                             : 1
Format                         : AVC
Format/Info                    : Advanced Video Codec
Format profile                 : Main@L3
Format settings, CABAC         : Yes
Format settings, ReFrames      : 4 frames
Codec ID                       : V_MPEG4/ISO/AVC
Duration                       : 1 h 24 min
Bit rate                       : 2 114 kb/s
Width                          : 720 pixels
Height                         : 576 pixels
Display aspect ratio           : 4:3
Original display aspect ratio  : 4:3
Frame rate mode                : Constant
Frame rate                     : 25.000 FPS
Standard                       : PAL
Color space                    : YUV
Chroma subsampling             : 4:2:0
Bit depth                      : 8 bits
Scan type                      : MBAFF
Scan type, store method        : Interleaved fields
Scan order                     : Top Field First
Bits/(Pixel*Frame)             : 0.204
Stream size                    : 1.24 GiB (87%)
Default                        : Yes
Forced                         : No
Color range                    : Limited
Color primaries                : BT.601 PAL
Transfer characteristics       : BT.470 System B, BT.470 System G
Matrix coefficients            : BT.601
Audio
ID                             : 2
Format                         : MPEG Audio
Format version                 : Version 1
Format profile                 : Layer 2
Codec ID                       : A_MPEG/L2
Codec ID/Hint                  : MP2
Duration                       : 1 h 24 min
Bit rate mode                  : Constant
Bit rate                       : 256 kb/s
Channel(s)                     : 2 channels
Sampling rate                  : 48.0 kHz
Compression mode               : Lossy
Stream size                    : 154 MiB (11%)
Default                        : Yes
Forced                         : No
 





   Похожие торренты   Торрент   Размер 
В этой теме нет новых непрочитанных сообщений. Эпилог (1994) SATRip от AND01AND

1 | 1

1.42 ГБ

В этой теме нет новых непрочитанных сообщений. Славянский базар 1994. Антология (1994) DVB от AND03AND

2 | 4

988.17 МБ

В этой теме нет новых непрочитанных сообщений. Огненный стрелок (1994) SATRip от AND03AND

10 | 5

1.08 ГБ

В этой теме нет новых непрочитанных сообщений. Агата Кристи - Эпилог (2010) МР3

54 | 4

63.31 МБ

В этой теме нет новых непрочитанных сообщений. Эпилог / Wit (2001) DVDRip от olegek70 | P2

6 | 2

1.46 ГБ

В этой теме нет новых непрочитанных сообщений. Агата Кристи - Эпилог (2010) FLAC

10 | 2

342.39 МБ

В этой теме нет новых непрочитанных сообщений. Ментовские войны [S04], Эпилог (2008) WEBRip-AVC

111 | 32

6.4 ГБ




Вы не можете начинать темы
Вы не можете отвечать на сообщения
Вы не можете редактировать свои сообщения
Вы не можете удалять свои сообщения
Вы не можете добавлять вложения

Перейти:  
Для Мосгорсуда, Роскомнадзора и рекламодателей: mosgorsud-torrent[собачка]yandex.ru
 Вход
ppkBB3cker v.2 © 2008-2014 @ PPK
[ Time : 6.099s | 15 Queries | GZIP : On ]

Торрент трекер RUTOR.IN, Не можете зайти на rutor.org? Какой новый адрес рутор? Какое зеркало рутор? Не работает rutor.org и зеркала? Тогда наш торрент специально для вас. Rutor.in неофициальное зеркало rutor. В случае если у Вас заблокирован rutor или вдруг Вы не можете на него зайти, то Вы без труда сможете скачать бесплатно и без рекламы последние новинки кино, игр, сериалов и прочего у нас, на Rutor.in. Не нужно использовать прокси, чтобы зайти на рутор, достаточно воспользоваться нашим ресурсом. Все новые фильмы, игры, сериалы, книги и музыка за 2013 и 2014 годы через торрент бесплатно. Скачивайте фильмы в хорошем качестве, игры для пк, xbox, playstation без регистрации. У нас вы найдете новые Зарубежные сериалы и Русские сериалы 2013, 2014, 2015 годов. Оставайтесь с нами, качайте любимые фильмы, игры, сериалы, книги и музыку.