img image001 image001 image001 image001 image001 image001 image001 image001 image001 image001 image001 image001 image001 image001 image001

Planets Sun Sun Sun
Статистика раздачи
Автор: PriZraK | Размер: 1.46 ГБ | Добавлен: 22 окт 2016
Раздают: 63    Качают: 0
Скачать торрент
Скачать торрент
Описание торрента

СообщениеДобавлено: 22 окт 2016 

Все о мужчинах


Страна: Россия
Жанр: комедия
Год выпуска: 2016
Продолжительность: 01:18:48
Перевод: Не требуется
Cубтитры: нет
Оригинальная аудиодорожка: русский
Режиссер: Михаил Жерневский, Леонид Марголин
В ролях: Дмитрий Нагиев, Анна Хилькевич, Игорь Верник, Сергей Белоголовцев, Грант Тохатян, Владимир Епифанцев, Екатерина Скулкина, Елена Борщева, Виктор Степанян, Ян Цапник, Елена Валюшкина, Станислав Ширин
Описание:
Это история о том, какими разными могут быть мужчины. О том, что мужчины - это, в первую очередь, сложные решения и настоящие поступки. О том, в чем мужчины могут быть сильны, а в чем комичны. О том, за что их можно и нужно любить...

Релиз:
Автор рипа: stalkerok
Сэмпл
Качество видео: BDRip-AVC [Blu-ray RUS 1080p AVC DTS-HD 5.1 HDCLUB]
Формат видео: MKV
Видео кодек: AVC
Аудио кодек: AC3
Видео: 2200 Кбит/сек, 1152x482 (2.40:1), 24 кадр/сек, AVC
Аудио: русский, 448 Кбит/сек, 48 КГц, 16 бит, 5.1, AC3
Навигация по главам: есть

x264 [info]: frame I:932 Avg QP:15.66 size: 78594
x264 [info]: frame P:25776 Avg QP:18.39 size: 25053
x264 [info]: frame B:86782 Avg QP:20.53 size: 6698
Общее
Уникальный идентификатор : 184823672041495953365605523752164412100 (0x8B0BBE93BA108488B1BCF52DD9064AC4)
Полное имя : M:3RipsVse o muzhchinahVse.o.muzhchinah.2016.BDRip-AVC.1.45Gb.stalkerok.new-team.mkv
Формат : Matroska
Версия формата : Version 4 / Version 2
Размер файла : 1,46 Гбайт
Продолжительность : 1 ч. 18 м.
Общий поток : 2650 Кбит/сек
Название фильма : Все о мужчинах (2016) (Rip by stalkerok)
Дата кодирования : UTC 2016-10-20 17:42:10
Программа кодирования : mkvmerge v8.6.1 ('Flying') 64bit
Библиотека кодирования : libebml v1.3.3 + libmatroska v1.4.4
Видео
Идентификатор : 1
Формат : AVC
Формат/Информация : Advanced Video Codec
Профиль формата : High@L4.1
Параметр CABAC формата : Да
Параметр ReFrames формата : 14 кадров
Идентификатор кодека : V_MPEG4/ISO/AVC
Продолжительность : 1 ч. 18 м.
Битрейт : 2200 Кбит/сек
Ширина : 1152 пикселя
Высота : 482 пикселя
Соотношение сторон : 2,40:1
Режим частоты кадров : Постоянный
Частота кадров : 24,000 кадра/сек
Цветовое пространство : YUV
Субдискретизация насыщенности : 4:2:0
Битовая глубина : 8 бит
Тип развёртки : Прогрессивная
Бит/(Пиксели*Кадры) : 0.165
Размер потока : 1,21 Гбайт (83%)
Заголовок : Все о мужчинах (2016) (Rip by stalkerok)
Библиотека кодирования : x264 core 148 r2705+54 9f484c1 t_mod_Custom [8-bit@all X86_64]
Настройки программы : cabac=1 / ref=14 / deblock=1:-3:-2 / analyse=0x3:0x133 / me=umh / subme=10 / psy=1 / fade_compensate=0.00 / psy_rd=1.00:0.00 / mixed_ref=1 / me_range=32 / chroma_me=1 / trellis=2 / 8x8dct=1 / cqm=0 / deadzone=21,11 / fast_pskip=0 / chroma_qp_offset=-2 / threads=12 / lookahead_threads=3 / sliced_threads=0 / nr=0 / decimate=0 / interlaced=0 / bluray_compat=0 / constrained_intra=0 / fgo=0 / bframes=14 / b_pyramid=2 / b_adapt=2 / b_bias=0 / direct=3 / weightb=1 / open_gop=0 / weightp=2 / keyint=240 / keyint_min=23 / scenecut=40 / intra_refresh=0 / rc_lookahead=60 / rc=2pass / mbtree=0 / bitrate=2200 / ratetol=1.0 / qcomp=0.65 / qpmin=0:0:0 / qpmax=69:69:69 / qpstep=4 / cplxblur=20.0 / qblur=0.5 / vbv_maxrate=50000 / vbv_bufsize=62500 / nal_hrd=none / filler=0 / ip_ratio=1.35 / pb_ratio=1.25 / aq=3:0.85 / aq-sensitivity=10.00 / aq-factor=1.00:1.00:1.00 / aq2=0 / aq3=0
Default : Да
Forced : Нет
Аудио
Идентификатор : 2
Формат : AC-3
Формат/Информация : Audio Coding 3
Расширение режима : CM (complete main)
Параметр Endianness формата : Big
Идентификатор кодека : A_AC3
Продолжительность : 1 ч. 18 м.
Вид битрейта : Постоянный
Битрейт : 448 Кбит/сек
Каналы : 6 каналов
Расположение каналов : Front: L C R, Side: L R, LFE
Частота : 48,0 КГц
Частота кадров : 31,250 кадров/сек (1536 spf)
Метод сжатия : С потерями
Размер потока : 253 Мбайт (17%)
Язык : Russian
Default : Да
Forced : Нет
Меню
00:00:00.000 : en:Chapter 1
00:03:48.708 : en:Chapter 2
00:10:43.541 : en:Chapter 3
00:21:04.541 : en:Chapter 4
00:33:38.416 : en:Chapter 5
00:41:32.041 : en:Chapter 6
00:52:15.083 : en:Chapter 7
01:00:16.625 : en:Chapter 8
01:09:03.000 : en:Chapter 9





   Похожие торренты   Торрент   Размер 
В этой теме нет новых непрочитанных сообщений. Все о мужчинах (2016) BDRip-AVC от New-Team | Лицензия

62 | 0

746.84 МБ

В этой теме нет новых непрочитанных сообщений. Все о мужчинах (2016) BDRip 1080p | Лицензия

31 | 0

9.44 ГБ

В этой теме нет новых непрочитанных сообщений. Всё о мужчинах (2016) BDRip 720p | Лицензия

70 | 1

4.43 ГБ

В этой теме нет новых непрочитанных сообщений. Все о мужчинах (2016) BDRip от HQCLUB | Лицензия

61 | 0

1.45 ГБ

В этой теме нет новых непрочитанных сообщений. Всё о мужчинах (2016) BDRip 1080p | Лицензия

38 | 0

7.67 ГБ

В этой теме нет новых непрочитанных сообщений. Все о мужчинах (2016) BDRip-AVC от R.G.Resident | Лицензия

26 | 2

1.84 ГБ

В этой теме нет новых непрочитанных сообщений. Всё о мужчинах (2016) BDRip от ExKinoRay | Лицензия

27 | 0

1.46 ГБ




Вы не можете начинать темы
Вы не можете отвечать на сообщения
Вы не можете редактировать свои сообщения
Вы не можете удалять свои сообщения
Вы не можете добавлять вложения

Перейти:  
Для Мосгорсуда, Роскомнадзора и рекламодателей: mosgorsud-torrent[собачка]yandex.ru
 Вход
ppkBB3cker v.2 © 2008-2014 @ PPK
[ Time : 0.053s | 17 Queries | GZIP : Off ]

Торрент трекер RUTOR.IN, Не можете зайти на rutor.org? Какой новый адрес рутор? Какое зеркало рутор? Не работает rutor.org и зеркала? Тогда наш торрент специально для вас. Rutor.in неофициальное зеркало rutor. В случае если у Вас заблокирован rutor или вдруг Вы не можете на него зайти, то Вы без труда сможете скачать бесплатно и без рекламы последние новинки кино, игр, сериалов и прочего у нас, на Rutor.in. Не нужно использовать прокси, чтобы зайти на рутор, достаточно воспользоваться нашим ресурсом. Все новые фильмы, игры, сериалы, книги и музыка за 2013 и 2014 годы через торрент бесплатно. Скачивайте фильмы в хорошем качестве, игры для пк, xbox, playstation без регистрации. У нас вы найдете новые Зарубежные сериалы и Русские сериалы 2013, 2014, 2015 годов. Оставайтесь с нами, качайте любимые фильмы, игры, сериалы, книги и музыку.
cron