img image001 image001 image001 image001 image001 image001 image001 image001 image001 image001 image001 image001 image001 image001 image001

Planets Sun Sun Sun
Статистика раздачи
Автор: PriZraK | Размер: 746.84 МБ | Добавлен: 22 окт 2016
Раздают: 133    Качают: 10
Скачать торрент
Скачать торрент
Описание торрента

СообщениеДобавлено: 22 окт 2016 

Все о мужчинах


Страна: Россия
Жанр: комедия
Год выпуска: 2016
Продолжительность: 01:18:48
Перевод: Не требуется
Cубтитры: нет
Оригинальная аудиодорожка: русский
Режиссер: Михаил Жерневский, Леонид Марголин
В ролях: Дмитрий Нагиев, Анна Хилькевич, Игорь Верник, Сергей Белоголовцев, Грант Тохатян, Владимир Епифанцев, Екатерина Скулкина, Елена Борщева, Виктор Степанян, Ян Цапник, Елена Валюшкина, Станислав Ширин
Описание:
Это история о том, какими разными могут быть мужчины. О том, что мужчины - это, в первую очередь, сложные решения и настоящие поступки. О том, в чем мужчины могут быть сильны, а в чем комичны. О том, за что их можно и нужно любить...

Релиз:
Автор рипа: stalkerok
Сэмпл
Качество видео: BDRip-AVC [Blu-ray RUS 1080p AVC DTS-HD 5.1 HDCLUB]
Формат видео: MKV
Видео кодек: AVC
Аудио кодек: AAC
Видео: 1223 Кбит/сек, 874*366 (2,40:1), в 24,000 кадра/сек, AVC
Аудио: русский, 100,0 Кбит/сек, 48,0 КГц / 24,0 КГц, 2 канала, AAC (HE-AAC / LC)
Навигация по главам: есть

x264 [info]: frame I:946 Avg QP:16.15 size: 49251
x264 [info]: frame P:26456 Avg QP:19.13 size: 14038
x264 [info]: frame B:86088 Avg QP:21.47 size: 3542
Общее
Уникальный идентификатор : 182869861955010894449705026391512160712 (0x8993744D6E7985CF9379BB85927F99C8)
Полное имя : M:3RipsVse o muzhchinahVse.o.muzhchinah.2016.BDRip-AVC.745Mb.stalkerok.new-team.mkv
Формат : Matroska
Версия формата : Version 4 / Version 2
Размер файла : 747 Мбайт
Продолжительность : 1 ч. 18 м.
Общий поток : 1325 Кбит/сек
Название фильма : Все о мужчинах (2016) (Rip by stalkerok)
Дата кодирования : UTC 2016-10-21 12:41:13
Программа кодирования : mkvmerge v8.6.1 ('Flying') 64bit
Библиотека кодирования : libebml v1.3.3 + libmatroska v1.4.4
Видео
Идентификатор : 1
Формат : AVC
Формат/Информация : Advanced Video Codec
Профиль формата : High@L4.1
Параметр CABAC формата : Да
Параметр ReFrames формата : 16 кадров
Идентификатор кодека : V_MPEG4/ISO/AVC
Продолжительность : 1 ч. 18 м.
Битрейт : 1223 Кбит/сек
Ширина : 874 пикселя
Высота : 366 пикселей
Соотношение сторон : 2,40:1
Режим частоты кадров : Постоянный
Частота кадров : 24,000 кадра/сек
Цветовое пространство : YUV
Субдискретизация насыщенности : 4:2:0
Битовая глубина : 8 бит
Тип развёртки : Прогрессивная
Бит/(Пиксели*Кадры) : 0.159
Размер потока : 689 Мбайт (92%)
Заголовок : Все о мужчинах (2016) (Rip by stalkerok)
Библиотека кодирования : x264 core 148 r2705+54 9f484c1 t_mod_Custom [8-bit@all X86_64]
Настройки программы : cabac=1 / ref=16 / deblock=1:-3:-2 / analyse=0x3:0x133 / me=umh / subme=10 / psy=1 / fade_compensate=0.00 / psy_rd=1.00:0.00 / mixed_ref=1 / me_range=32 / chroma_me=1 / trellis=2 / 8x8dct=1 / cqm=0 / deadzone=21,11 / fast_pskip=0 / chroma_qp_offset=-2 / threads=11 / lookahead_threads=2 / sliced_threads=0 / nr=0 / decimate=0 / interlaced=0 / bluray_compat=0 / constrained_intra=0 / fgo=0 / bframes=16 / b_pyramid=2 / b_adapt=2 / b_bias=0 / direct=3 / weightb=1 / open_gop=0 / weightp=2 / keyint=240 / keyint_min=23 / scenecut=40 / intra_refresh=0 / rc_lookahead=60 / rc=2pass / mbtree=0 / bitrate=1223 / ratetol=1.0 / qcomp=0.65 / qpmin=0:0:0 / qpmax=69:69:69 / qpstep=4 / cplxblur=20.0 / qblur=0.5 / vbv_maxrate=50000 / vbv_bufsize=62500 / nal_hrd=none / filler=0 / ip_ratio=1.35 / pb_ratio=1.25 / aq=3:0.85 / aq-sensitivity=10.00 / aq-factor=1.00:1.00:1.00 / aq2=0 / aq3=0
Default : Да
Forced : Нет
Аудио
Идентификатор : 2
Формат : AAC
Формат/Информация : Advanced Audio Codec
Профиль формата : HE-AAC / LC
Идентификатор кодека : A_AAC
Продолжительность : 1 ч. 18 м.
Битрейт : 100,0 Кбит/сек
Каналы : 2 канала
Расположение каналов : Front: L R
Частота : 48,0 КГц / 24,0 КГц
Частота кадров : 23,438 кадра/сек (1024 spf)
Метод сжатия : С потерями
Задержка видео : 31 мс.
Размер потока : 56,4 Мбайт (8%)
Язык : Russian
Default : Да
Forced : Нет
Меню
00:00:00.000 : en:Chapter 1
00:03:48.708 : en:Chapter 2
00:10:43.541 : en:Chapter 3
00:21:04.541 : en:Chapter 4
00:33:38.416 : en:Chapter 5
00:41:32.041 : en:Chapter 6
00:52:15.083 : en:Chapter 7
01:00:16.625 : en:Chapter 8
01:09:03.000 : en:Chapter 9





   Похожие торренты   Торрент   Размер 
В этой теме нет новых непрочитанных сообщений. Все о мужчинах (2016) BDRip-AVC от New-Team | Лицензия

238 | 18

1.46 ГБ

В этой теме нет новых непрочитанных сообщений. Всё о мужчинах (2016) BDRip 720p | Лицензия

304 | 74

4.43 ГБ

В этой теме нет новых непрочитанных сообщений. Все о мужчинах (2016) BDRip-AVC от NNNB | Лицензия

341 | 55

1.46 ГБ

В этой теме нет новых непрочитанных сообщений. Всё о мужчинах (2016) BDRip 1080p | Лицензия

231 | 17

7.67 ГБ

В этой теме нет новых непрочитанных сообщений. Все о мужчинах (2016) BDRip 720p | Лицензия

363 | 43

4.18 ГБ

В этой теме нет новых непрочитанных сообщений. Все о мужчинах (2016) BDRip-AVC от R.G.Resident | Лицензия

245 | 18

1.84 ГБ

В этой теме нет новых непрочитанных сообщений. Все о мужчинах (2016) BDRip от HQCLUB | Лицензия

292 | 21

1.45 ГБ




Вы не можете начинать темы
Вы не можете отвечать на сообщения
Вы не можете редактировать свои сообщения
Вы не можете удалять свои сообщения
Вы не можете добавлять вложения

Перейти:  
Для Мосгорсуда, Роскомнадзора и рекламодателей: mosgorsud-torrent[собачка]yandex.ru
 Вход
ppkBB3cker v.2 © 2008-2014 @ PPK
[ Time : 0.054s | 15 Queries | GZIP : On ]

Торрент трекер RUTOR.IN, Не можете зайти на rutor.org? Какой новый адрес рутор? Какое зеркало рутор? Не работает rutor.org и зеркала? Тогда наш торрент специально для вас. Rutor.in неофициальное зеркало rutor. В случае если у Вас заблокирован rutor или вдруг Вы не можете на него зайти, то Вы без труда сможете скачать бесплатно и без рекламы последние новинки кино, игр, сериалов и прочего у нас, на Rutor.in. Не нужно использовать прокси, чтобы зайти на рутор, достаточно воспользоваться нашим ресурсом. Все новые фильмы, игры, сериалы, книги и музыка за 2013 и 2014 годы через торрент бесплатно. Скачивайте фильмы в хорошем качестве, игры для пк, xbox, playstation без регистрации. У нас вы найдете новые Зарубежные сериалы и Русские сериалы 2013, 2014, 2015 годов. Оставайтесь с нами, качайте любимые фильмы, игры, сериалы, книги и музыку.